Loading...
Error

Скачать Танцы на краю/ Танцы на грани / Dancing on the Edge ( Стивен Полякофф) (сезон 1, серия 1-5 из 5) [2013, Драма , HDTVRip-AVC 1080p] [DD5.1] [BaibaKo] торрент без регистрации

 
Статистика раздачи
Размер:  11,73 GB   |    Скачан:  117 раз
Сидов:  1  [  0 KB/s  ]  
 
Автор Сообщение

Nikolai.Baranov

[] 


Танцы на краю/ Танцы на грани / Dancing on the Edge




Год выпуска: 2013
Выпущено: Великобритания, Ruby Films
Жанр: Драма
Продолжительность: 01:30:00 + 4 x ~ 01:01:00
Сезон: 1
Серия: 1-5
Количество серий в сезоне: 5
Перевод: Вячеслав Лоев
Озвучка:Профессиональная многоголосая закадровая(Байбако) Владимир Курдов, Светлана Доманова, Татьяна Оболевич и Олекса Мельник
Субтитры: Русские



Режиссер: Стивен Полякофф

В ролях: Энтони Хэд, Дженна-Луиза Коулман, Чиветель Эджиофор, Мэттью Гуд, Аллан Кордунер, Джанет Монтгомери, Вунми Моссаку, Кэролайн Квентин, Том Хьюз


Лондон в начале 1930-х годов на фоне финансового кризиса и до начала Второй мировой войны переживает подъём индустрии развлечений: фильмы, журналы и музыка приобретают большое значение в обществе и джаз берет мир штурмом. Музыкальный журналист Стэнли Митчелл помогает восхождению к славе джаз-бэнда Луи Лестера. Коллектив буквально из подвала попадает в прославленный Отель "Империал". Пожилая аудитория воспринимает в штыки и сам джаз, и темнокожих музыкантов. А молодые аристократы наоборот приветствуют всё новое и необычное и приглашают музыкантов на частную вечеринку.

Качество : HDTVRip-AVC 1080p
Формат: MPEG-4
Видео кодек: H264
Видео: 4173Кбит/сек,1920х1080(16.9),в 25.000кадр/сек,AVC(Baseline@L4.0)(1Ref Frames)
Аудио кодек: AAC
Аудио Russian Dolby Digital 5.1:456Кбит/сек,44.1КГц,6каналов,AAC,(Version4)(LC)


Звуковая дорожка сделана путем наложения чистого голоса озвучивателей на центральный канал оригинальной дорожки. Качество идентично звуковой дорожке.



eneral
Полное имя : D:\С Е Р И А Л Ы\Dancing_On_The_Edge_S01_RUS[BaibaKo.tvi]_DD5.1_x264_Nikolai.Baranov_HDTVRip-AVC_(1080p)\Dancing_On_The_Edge_S01E01_RUS[BaibaKo.tvi]_DD5.1_x264_Nikolai.Baranov_HDTVRip-AVC_(1080p).mp4
Формат : MPEG-4
Профиль формата : Base Media
Идентификатор кодека : isom
Размер файла : 2.93 GiB
Продолжительность : 1h 30mn
Режим общего битрейта : Variable
Общий поток : 4 633 Kbps
Название фильма : BaibaKo.tv presents - Танцы РЅР° краю 1С…01
Дата кодирования : UTC 2013-06-14 23:09:48
Дата пометки : UTC 2013-06-14 23:09:48
Программа кодирования : Lavf51.12.1

Video
Идентификатор : 1
Формат : AVC
Формат/Информация : Advanced Video Codec
Профиль формата : Baseline@L4.0
Параметр CABAC формата : No
Параметр ReFrames формата : 1 frame
Параметр GOP формата : M=1, N=12
Идентификатор кодека : avc1
Идентификатор кодека/Информация : Advanced Video Coding
Продолжительность : 1h 30mn
Вид битрейта : Variable
Битрейт : 4 173 Kbps
Максимальный битрейт : 6 000 Kbps
Ширина : 1 920 pixels
Высота : 1 080 pixels
Соотношение сторон : 16:9
Режим частоты кадров : Constant
Частота кадров : 25.000 fps
Частота кадров в оригинале : 24.000 fps
Цветовое пространство : YUV
Субдискретизация насыщенности : 4:2:0
Битовая глубина : 8 bits
Тип развёртки : Progressive
Бит/(Пиксели*Кадры) : 0.080
Размер потока : 2.64 GiB (90%)
Язык : English
Дата кодирования : UTC 2013-06-14 23:09:48
Дата пометки : UTC 2013-06-14 23:09:48

Audio
Идентификатор : 2
Формат : AAC
Формат/Информация : Advanced Audio Codec
Профиль формата : LC
Идентификатор кодека : 40
Продолжительность : 1h 30mn
Вид битрейта : Variable
Битрейт : 456 Kbps
Каналы : 6 channels
Расположение каналов : Front: L C R, Side: L R, LFE
Частота : 44.1 KHz
Метод сжатия : Lossy
Размер потока : 295 MiB (10%)
Дата кодирования : UTC 2013-06-14 23:09:48
Дата пометки : UTC 2013-06-14 23:09:48










1. Открыть торрент
2. Снять галки с тех файлов торрента, которые мы не хотим закачивать. Оставляем только на нужных нам файлах (файле).
3. Нажать О.К.

В клиенте utorrent

Инструкция

1) Открыть торрент


2) Снять галки с тех файлов торрента, которые мы не хотим закачивать:

* либо вручную, снимая с каждого файла галку( скрин №1)
* либо, нажав кнопку "Снять метки (Select None)", сняв сразу со всех файлов(скрин №2)
№1

№2

Оставляем только на нужных нам файлах (файле).

3)Нажать О.К




Релиз от: Nikolai.Baranov










Скачать Танцы.на.краю.Танцы.на.грани.Dancing.on.the.Edge.(.Стивен.Полякофф).(сезон.1.серия.1-5.из.5).[2013.Драма.HDTVRip-AVC.1080p].[DD5.1].[BaibaKo].torrent без регистрации
Золото ЗОЛОТАЯ РАЗДАЧА! СКАЧАННОЕ НЕ ЗАСЧИТЫВАЕТСЯ! Золото
Дата: Зарегистрирован   [ Тип: внутренний ] Как тут cкачать?
MAGNET ссылка
MAGNET ссылка


Скачать .torrent

30 KB

Статус: проверено DHT
Скачан: торрент - 117 раз, раздача полностью - 14 раз
Размер: 11,73 GB
Оценка:  - (Голосов: 0)
Поблагодарили: 1
Поделиться ссылкой на эту раздачу с друзьями:
В контактеFacebookОдноклассникиTwitterLivejournalМой МирLiveinternet
 

 
Показать сообщения:    


Вы не можете начинать темы
Вы не можете отвечать на сообщения
Вы не можете редактировать свои сообщения
Вы не можете удалять свои сообщения
Вы не можете голосовать в опросах
Вы не можете прикреплять файлы к сообщениям
Вы можете скачивать файлы