Loading...
Error

Скачать Они поменялись местами / Model Behavior (Марк Розман / Mark Rosman) [2000, Молодежная комедия, SATRip] [MVO] торрент без регистрации

 
Статистика раздачи
Размер:  1,36 GB   |    Скачан:  179 раз
Сидов:  1  [  0 KB/s  ]  
 
Автор Сообщение

leon030982

[] 

Они поменялись местами / Model Behavior

Год выпуска: 2000
Страна: США
Жанр: Молодежная комедия
Продолжительность: 01:25:58
Перевод: Профессиональный (многоголосый закадровый)
Cубтитры: нет

Режиссер: Марк Розман / Mark Rosman

В ролях: Джастин Тимберлэйк, Джесси Нилссон, Джим Эйбили, Дэниэл Кларк, Коуди Гиффорд, Кэрен Хайнс, Мэгги Лоусон

Описание: Алекс - симпатичная, но болезненно стеснительная девушка, которая страстно мечтает оказаться в центре внимания. Но ее стиль одежды - вопиюще нелепый и ужасный, а движения - неловкие и зажатые. В любви ей не везет. Отец Алекс занимается устройством приемов и вечеринок. И вот однажды их приглашают организовать прием у знаменитой модели Джаннин. Алекс случайно натыкается на Джаннин, и та, заметив, насколько они с ней похожи, решает поменяться с Алекс местами. Оказывается, что гламурная светская львица Джанин ужасно устала от всех этих раутов, вечеринок, строгих диет и назойливых поклонников и с радостью бы перевалила все свои обязанности на чужие плечи. Итак, Алекс получила шанс покружиться в блеске светской жизни и славы, а Джаннин пошла в обычную школу, где к ней все относятся, как к одной из стада. Они поменялись местами, и неизвестно, к каким последствиям это приведет...

Релиз

Качество видео: SATRip
Формат видео: AVI
Видео: 720x544 (1.32:1), 25 fps, XviD build 50 ~2072 kbps avg, 0.21 bit/pixel
Аудио: 48 kHz, AC3 Dolby Digital, 2 ch, ~192.00 kbps avg
Звук взят с релиза Рада
За предоставленный рип благодарим Ledy_X
Они поменялись местами - Model Behavior [Rip by Ledy_X].avi
Format : AVI
Format/Info : Audio Video Interleave
File size : 1.36 GiB
Duration : 1h 25mn
Overall bit rate : 2 273 Kbps
Movie name : Они поменялись местами - Model Behavior [Rip by Ledy_X]
Director : Rip by Ledy_X
Writing application : Nandub v1.0rc2
Copyright : Edich2
Comment : RuTracker.org
Video
ID : 0
Format : MPEG-4 Visual
Format profile : Advanced Simple@L5
Format settings, BVOP : 1
Format settings, QPel : No
Format settings, GMC : No warppoints
Format settings, Matrix : Default (MPEG)
Codec ID : XVID
Codec ID/Hint : XviD
Duration : 1h 25mn
Bit rate : 2 072 Kbps
Width : 720 pixels
Height : 544 pixels
Display aspect ratio : 4:3
Frame rate : 25.000 fps
Color space : YUV
Chroma subsampling : 4:2:0
Bit depth : 8 bits
Scan type : Progressive
Compression mode : Lossy
Bits/(Pixel*Frame) : 0.212
Stream size : 1.24 GiB (91%)
Writing library : XviD 1.2.1 (UTC 2008-12-04)
Audio
ID : 1
Format : AC-3
Format/Info : Audio Coding 3
Mode extension : CM (complete main)
Format settings, Endianness : Big
Codec ID : 2000
Duration : 1h 25mn
Bit rate mode : Constant
Bit rate : 192 Kbps
Channel(s) : 2 channels
Channel positions : Front: L R
Sampling rate : 48.0 KHz
Bit depth : 16 bits
Compression mode : Lossy
Delay relative to video : 4s 500ms
Stream size : 117 MiB (8%)
Alignment : Split accross interleaves
Interleave, duration : 40 ms (1.01 video frame)
Interleave, preload duration : 500 ms



Скачать Они.поменялись.местами.Model.Behavior.(Марк.Розман.Mark.Rosman).[2000.Молодежная.комедия.SATRip].[MVO].torrent без регистрации
Золото ЗОЛОТАЯ РАЗДАЧА! СКАЧАННОЕ НЕ ЗАСЧИТЫВАЕТСЯ! Золото
Дата: Зарегистрирован   [ Тип: внутренний ] Как тут cкачать?
MAGNET ссылка
MAGNET ссылка


Скачать .torrent

14 KB

Статус: проверено DHT
Скачан: торрент - 179 раз, раздача полностью - 57 раз
Размер: 1,36 GB
Оценка:  - (Голосов: 0)
Поблагодарили: 1
Поделиться ссылкой на эту раздачу с друзьями:
В контактеFacebookОдноклассникиTwitterLivejournalМой МирLiveinternet
 

 
Показать сообщения:    


Вы не можете начинать темы
Вы не можете отвечать на сообщения
Вы не можете редактировать свои сообщения
Вы не можете удалять свои сообщения
Вы не можете голосовать в опросах
Вы не можете прикреплять файлы к сообщениям
Вы можете скачивать файлы