Loading...
Error

Скачать Месть малыша Билли / Revenge of Billy the Kid (Джим Грум) [1992, комедия, ужасы, DVDRip-AVC] [AVO] (Вячеслав Котов) торрент без регистрации

 
Статистика раздачи
Размер:  1,46 GB   |    Скачан:  119 раз
Сидов:  1  [  0 KB/s  ]  
 
Автор Сообщение

durik

[] 

Месть малыша Билли / Revenge of Billy the Kid

Год выпуска: 1992
Страна: Великобритания
Слоган: «Old McDonald had a farm... and on that farm he HAD a goat»
Жанр: комедия, ужасы
Продолжительность: 01:27:10
Перевод: Авторский одноголосый (Вячеслав Котов) + Оригинальная звуковая дорожка
Субтитры: Нет
Режиссёр: Джим Грум
Сценарист: Тим Деннисон, Джим Грум, Ричард Мэтьюз
Продюсер: Тим Деннисон, Джим Грум, Ричард Лэйк
Оператор: Дэвид Рид
Композитор: Тони Флинн
В ролях: Майкл Бальфур, Саманта Перкинс, Джеки Д. Броад, Брайан Хили, Тревор Пик, Норман Митчелл, Дин Уильямсон, Майкл Риппер, Джон Гуголка, Джон Эбботт
Описание: На одной английской ферме живёт большая семья Макдоналдов, состоящая из придурков и алкоголиков. Однажды их коза рожает необычного козлёнка. Глава семейства намерен убить козлёнка-мутанта, но добрая девушка Ронни Макдоналд, спасает уродца и даёт ему имя Билли. Старина Макдоналд не прекращает попыток замочить малыша Билли и однажды ночью, предварительно оглушив уже прилично подросшего мутанта, топит его в реке. Но не тут-то было! Билли возвращается чтобы мстить!
Рейтинг MPAA: Рейтинг R (Подростки до 17 лет допускаются на фильм только в сопровождении одного из родителей)
Мировая премьера: 17 июля 1992

Качество: DVDRip-AVC
Формат: MKV
Видео кодек: H264 (AVC)
Аудио кодек: AC3 (Dolby Digital)
Видео: 720x400, 2026 kbps, 29,970 fps, 0,261 Bits/(Pixel*Frame)
Аудио #1: AC3, 48 kHz, 192 kbps, 2 ch [Авторский одноголосый (Вячеслав Котов)]
Аудио #2: AC3, 48 kHz, 192 kbps, 2 ch [Оригинальная звуковая дорожка]
Субтитры: Нет

Релиз от: и

Автор рипа: Bathory



General
Unique ID : 226568647743556353570898323006475556938 (0xAA7388C8DBE21897A079E01541D1584A)
Complete name : H:Mest.Billy.THRASH.DVDRip.mkv
Format : Matroska
Format version : Version 4 / Version 2
File size : 1.46 GiB
Duration : 1h 27mn
Overall bit rate : 2 397 Kbps
Encoded date : UTC 2013-08-07 13:17:27
Writing application : mkvmerge v6.0.0 ('Coming Up For Air') built on Jan 20 2013 09:52:00
Writing library : libebml v1.3.0 + libmatroska v1.4.0

Video
ID : 1
Format : AVC
Format/Info : Advanced Video Codec
Format profile : High@L4.1
Format settings, CABAC : Yes
Format settings, ReFrames : 11 frames
Codec ID : V_MPEG4/ISO/AVC
Duration : 1h 27mn
Bit rate : 2 011 Kbps
Width : 720 pixels
Height : 400 pixels
Display aspect ratio : 16:9
Frame rate mode : Constant
Frame rate : 25.000 fps
Color space : YUV
Chroma subsampling : 4:2:0
Bit depth : 8 bits
Scan type : Progressive
Bits/(Pixel*Frame) : 0.279
Stream size : 1.20 GiB (82%)
Writing library : x264 core 133 r2334 a3ac64b
Encoding settings : cabac=1 / ref=11 / deblock=1:-1:-1 / analyse=0x3:0x133 / me=umh / subme=11 / psy=1 / psy_rd=1.15:0.20 / mixed_ref=1 / me_range=32 / chroma_me=1 / trellis=2 / 8x8dct=1 / cqm=0 / deadzone=21,11 / fast_pskip=1 / chroma_qp_offset=-3 / threads=6 / lookahead_threads=1 / sliced_threads=0 / nr=25 / decimate=1 / interlaced=0 / bluray_compat=0 / constrained_intra=0 / bframes=10 / b_pyramid=2 / b_adapt=2 / b_bias=0 / direct=3 / weightb=1 / open_gop=0 / weightp=2 / keyint=250 / keyint_min=25 / scenecut=40 / intra_refresh=0 / rc_lookahead=65 / rc=2pass / mbtree=1 / bitrate=2011 / ratetol=1.0 / qcomp=0.60 / qpmin=0 / qpmax=69 / qpstep=4 / cplxblur=20.0 / qblur=0.5 / vbv_maxrate=62500 / vbv_bufsize=78125 / nal_hrd=none / ip_ratio=1.40 / aq=1:1.00
Default : Yes
Forced : No

Audio #1
ID : 2
Format : AC-3
Format/Info : Audio Coding 3
Mode extension : CM (complete main)
Format settings, Endianness : Big
Codec ID : A_AC3
Duration : 1h 27mn
Bit rate mode : Constant
Bit rate : 192 Kbps
Channel(s) : 2 channels
Channel positions : Front: L R
Sampling rate : 48.0 KHz
Bit depth : 16 bits
Compression mode : Lossy
Stream size : 120 MiB (8%)
Default : Yes
Forced : No

Audio #2
ID : 3
Format : AC-3
Format/Info : Audio Coding 3
Mode extension : CM (complete main)
Format settings, Endianness : Big
Codec ID : A_AC3
Duration : 1h 27mn
Bit rate mode : Constant
Bit rate : 192 Kbps
Channel(s) : 2 channels
Channel positions : Front: L R
Sampling rate : 48.0 KHz
Bit depth : 16 bits
Compression mode : Lossy
Stream size : 120 MiB (8%)
Default : No
Forced : No



Скачать Месть.малыша.Билли.Revenge.of.Billy.the.Kid.(Джим.Грум).[1992.комедия.ужасы.DVDRip-AVC].[AVO].(Вячеслав.Котов).torrent без регистрации
Золото ЗОЛОТАЯ РАЗДАЧА! СКАЧАННОЕ НЕ ЗАСЧИТЫВАЕТСЯ! Золото
Дата: Зарегистрирован   [ Тип: внутренний ] Как тут cкачать?
MAGNET ссылка
MAGNET ссылка


Скачать .torrent

15 KB

Статус: проверено DHT
Скачан: торрент - 119 раз, раздача полностью - 59 раз
Размер: 1,46 GB
Оценка:  5 (Голосов: 1)
Поблагодарили: 5
Поделиться ссылкой на эту раздачу с друзьями:
В контактеFacebookОдноклассникиTwitterLivejournalМой МирLiveinternet
 

 
Показать сообщения:    


Вы не можете начинать темы
Вы не можете отвечать на сообщения
Вы не можете редактировать свои сообщения
Вы не можете удалять свои сообщения
Вы не можете голосовать в опросах
Вы не можете прикреплять файлы к сообщениям
Вы можете скачивать файлы