Loading...
Error

Скачать Пилоты из Таскиги / The Tuskegee Airmen (Роберт Марковиц / Robert Markowitz) [1995, драма, военный, история, BDRip] [AVO] (П.Карцев) торрент без регистрации

 
Статистика раздачи
Размер:  1,46 GB   |    Скачан:  116 раз

Полного источника не было: 29 минут

 
Автор Сообщение

leon030982

[] 

Пилоты из Таскиги
The Tuskegee Airmen
«The right spirit. The right attitude. The wrong color.»


Год выпуска: 1995
Страна: США
Жанр: драма, военный, история
Продолжительность: 01:46:10
Перевод: Авторский (одноголосый закадровый) [Петр Карцев]
Субтитры: нет

Режиссер: Роберт Марковиц / Robert Markowitz

В ролях: Лоренс Фишбёрн, Аллен Пэйн, Мальколм-Джамал Уорнер, Кортни Б. Вэнс, Андре Брогер, Кристофер МакДональд, Дэниэл Хью Келли, Джон Литгоу, Кьюба Гудинг мл., Мехи Файфер, Кристофер Бевинс, Эдди Браун
Описание: Этот фильм основан на реальных событиях, произошедших в период 1942-1945 гг, во времена Второй Мировой войны. На одной из летных баз ВВС США в Таскиги проходят обучение цветные пилоты, испытывая при этом ряд страшных притеснений и унижений. У некоторых не выдерживают нервы и они уезжают домой, другие разбиваются во время учебных вылетов, однако некоторым из них все же удается закончить лётный курс и получить звания лейтенантов.

Далее ребята попадают на войну, где летают и бьются не хуже, а порой и лучше белых пилотов, которые также как и в летной школе с недоверием относятся к способностям цветных стать отличными летчиками.
В конце концов при планировании рейда на столицу Третьего Рейха - Берлин, пилоты бомбардировщиков просят командование дать им в качестве группы сопровождения именно истребителей из Таскиги - на тот момент лучшую истребительную группу ВВС США в Северной Италии.



MPAA: PG-13 - Детям до 13 лет просмотр не желателен
Качество: BDRip (Исходник BDRemux)
Контейнер: AVI
Видео: XviD, 720x400 (16:9), 1766 kbps, 23,976 fps, 0,256 bpp
Аудио: AC3 / 2.0 / 48 kHz / 192 kbps / 16 bit


Сценарий: Пэрис Куоллес / Paris Qualles, Трей Эллис / Trey Ellis, Рон Хатчинсон / Ron Hutchinson, Роберт Уильямс / Robert Williams, Т.С. Кук / T.S. Cook
Продюсер: Билл Карраро / Bill Carraro, Кэрол Бахорик / Carol Bahoric, Фрэнк Прайс / Frank Price, Роберт Уильямс / Robert Williams
Оператор: Рон Орье / Ron Orieux
Композитор: Ли Холдридж / Lee Holdridge
Мировая премьера: 26 августа 1995
General
Complete name : F:\The.Tuskegee.Airmen.1995.BDRip.avi
Format : AVI
Format/Info : Audio Video Interleave
File size : 1.46 GiB
Duration : 1h 46mn
Overall bit rate : 1 968 Kbps
Writing application : VirtualDubModRus 1.5.10.2 (build 2542/release)
Writing library : VirtualDubMod build 2542/release
Video
ID : 0
Format : MPEG-4 Visual
Format profile : Advanced Simple@L5
Format settings, BVOP : 1
Format settings, QPel : No
Format settings, GMC : No warppoints
Format settings, Matrix : Custom
Codec ID : XVID
Codec ID/Hint : XviD
Duration : 1h 46mn
Bit rate : 1 767 Kbps
Width : 720 pixels
Height : 400 pixels
Display aspect ratio : 16:9
Frame rate : 23.976 fps
Color space : YUV
Chroma subsampling : 4:2:0
Bit depth : 8 bits
Scan type : Progressive
Compression mode : Lossy
Bits/(Pixel*Frame) : 0.256
Stream size : 1.31 GiB (90%)
Writing library : XviD 65
Audio
ID : 1
Format : AC-3
Format/Info : Audio Coding 3
Mode extension : CM (complete main)
Codec ID : 2000
Duration : 1h 46mn
Bit rate mode : Constant
Bit rate : 192 Kbps
Channel(s) : 2 channels
Channel positions : Front: L R
Sampling rate : 48.0 KHz
Bit depth : 16 bits
Compression mode : Lossy
Stream size : 146 MiB (10%)
Alignment : Split accross interleaves
Interleave, duration : 42 ms (1.00 video frame)
Interleave, preload duration : 500 ms



Скачать Пилоты.из.Таскиги.The.Tuskegee.Airmen.(Роберт.Марковиц.Robert.Markowitz).[1995.драма.военный.история.BDRip].[AVO].(П.Карцев).torrent без регистрации
Золото ЗОЛОТАЯ РАЗДАЧА! СКАЧАННОЕ НЕ ЗАСЧИТЫВАЕТСЯ! Золото
Дата: Зарегистрирован   [ Тип: внутренний ] Как тут cкачать?
MAGNET ссылка
MAGNET ссылка


Скачать .torrent

15 KB

Статус: проверено DHT
Скачан: торрент - 116 раз, раздача полностью - 13 раз
Размер: 1,46 GB
Оценка:  - (Голосов: 0)
Поблагодарили: 3
Поделиться ссылкой на эту раздачу с друзьями:
В контактеFacebookОдноклассникиTwitterLivejournalМой МирLiveinternet
 

 
Показать сообщения:    


Вы не можете начинать темы
Вы не можете отвечать на сообщения
Вы не можете редактировать свои сообщения
Вы не можете удалять свои сообщения
Вы не можете голосовать в опросах
Вы не можете прикреплять файлы к сообщениям
Вы можете скачивать файлы