Loading...
Error

Скачать Драка в Бэттл Крик / Большая драка в Беттл Крик / The Big Brawl / The Big Creek Brawl (Роберт Клауз) [1980, боевик, комедия, BDRip-AVC] [MVO]+[AVO]x2+[Оригинал]+[Sub] торрент без регистрации

 
Статистика раздачи
Размер:  3,2 GB   |    Скачан:  109 раз
Сидов:  1  [  0 KB/s  ]  
 
Автор Сообщение

Marsianka

[] 

Информация о фильме
Название: Драка в Бэттл Крик (Большая драка в Беттл Крик)
Оригинальное название: The Big Brawl (The Big Creek Brawl)
Год выпуска: 1980
Жанр: боевик, комедия
Режиссер: Роберт Клауз
В ролях: Джеки Чан, Хосе Феррер, Кристин ДеБелл, Мако, Рон Макс, Дэвид Шайнер, Розалинд Чао, Ленни Монтана, Пэт Э. Джонсон, Мэри Эллен ОНил

О фильме: Чикаго 30-х годов. Количество преступников растет, как на дрожжах. Корейского эмигранта Джерри Квана занесла судьба в Чикаго, где человеку с азиатской внешностью найти приличную работу было практически невозможно. Но добрые люди познакомили Джерри с мистером Доменичи, влиятельным гангстером, которого покорило умение Джерри вести рукопашный бой. Доменичи как раз ищет подходящего парня для подпольного турнира «боев без правил»



Страна: США, Гонконг
Студия: Golden Harvest Company Ltd., Warner Bros. Pictures
Продолжительность: 01:35:52
Перевод: Профессиональный многоголосый, авторский одноголосый

Файл
Кодек: х264
Качество: BDRip (AVC)
Видео: MPEG-4 AVC, 3500 Кбит/с, 1024x434, 23.976 кадр/с
Аудио #1: Русский (AC3, 6 ch, 448 Кбит/с) / Профессионльный многоголосый
Аудио #2: Русский (AC3, 2 ch, 192 Кбит/с) / Авторский одноголосый (А. Гаврилов)
Аудио #3: Русский (AC3, 2 ch, 192 Кбит/с) / Авторский одноголосый (Л. Володарский)
Аудио #4: Английский (AC3, 6 ch, 448 Кбит/с)
Субтитры: Русские, английские
Семпл
x264 [info]: frame I:961 Avg QP:17.26 size: 68698
x264 [info]: frame P:34154 Avg QP:19.84 size: 31447
x264 [info]: frame B:102796 Avg QP:21.72 size: 13388
______________________________________________________________________
Общее
Уникальный идентификатор : 190984386881847047172714812355241874793 (0x8FAE4145195EA9E0B0533D6BB0D09569)
Полное имя : D:Mои раздачиDraka.v.Bettl.Krik.1980.BDRip.(AVC)-MediaClub.mkv
Формат : Matroska
Версия формата : Version 4 / Version 2
Размер файла : 3,20 Гбайт
Продолжительность : 1 ч. 35 м.
Общий поток : 4782 Кбит/сек
Название фильма : -=MediaClub-kaspr=-
Дата кодирования : UTC 2013-08-06 06:43:45
Программа кодирования : mkvmerge v6.3.0 ('You can't stop me!') built on Jul 19 2013 16:27:38
Библиотека кодирования : libebml v1.3.0 + libmatroska v1.4.1

Видео
Идентификатор : 1
Формат : AVC
Формат/Информация : Advanced Video Codec
Профиль формата : High@L4.1
Параметр CABAC формата : Да
Параметр ReFrames формата : 9 кадров
Идентификатор кодека : V_MPEG4/ISO/AVC
Продолжительность : 1 ч. 35 м.
Битрейт : 3500 Кбит/сек
Ширина : 1024 пикселя
Высота : 434 пикселя
Соотношение сторон : 2,35:1
Режим частоты кадров : Постоянный
Частота кадров : 23,976 кадра/сек
Цветовое пространство : YUV
Субдискретизация насыщенности : 4:2:0
Битовая глубина : 8 бит
Тип развёртки : Прогрессивная
Бит/(Пиксели*Кадры) : 0.328
Размер потока : 2,28 Гбайт (71%)
Заголовок : -=MediaClub-kaspr=-
Библиотека кодирования : x264 core 130 r2273 b3065e6
Настройки программы : cabac=1 / ref=9 / deblock=1:-3:-3 / analyse=0x3:0x133 / me=umh / subme=11 / psy=1 / psy_rd=1.00:0.20 / mixed_ref=1 / me_range=32 / chroma_me=1 / trellis=2 / 8x8dct=1 / cqm=0 / deadzone=21,11 / fast_pskip=0 / chroma_qp_offset=-3 / threads=12 / lookahead_threads=3 / sliced_threads=0 / nr=0 / decimate=0 / interlaced=0 / bluray_compat=0 / constrained_intra=0 / bframes=10 / b_pyramid=2 / b_adapt=2 / b_bias=0 / direct=3 / weightb=1 / open_gop=0 / weightp=2 / keyint=240 / keyint_min=23 / scenecut=40 / intra_refresh=0 / rc=2pass / mbtree=0 / bitrate=3500 / ratetol=1.0 / qcomp=0.60 / qpmin=0 / qpmax=69 / qpstep=4 / cplxblur=20.0 / qblur=0.5 / ip_ratio=1.40 / pb_ratio=1.30 / aq=1:1.00
Default : Да
Forced : Да

Аудио #1
Идентификатор : 2
Формат : AC-3
Формат/Информация : Audio Coding 3
Расширение режима : CM (complete main)
Параметр Endianness формата : Big
Идентификатор кодека : A_AC3
Продолжительность : 1 ч. 35 м.
Вид битрейта : Постоянный
Битрейт : 448 Кбит/сек
Каналы : 6 каналов
Расположение каналов : Front: L C R, Side: L R, LFE
Частота : 48,0 КГц
Битовая глубина : 16 бит
Метод сжатия : С потерями
Размер потока : 307 Мбайт (9%)
Заголовок : MVO
Язык : Russian
Default : Да
Forced : Да

Аудио #2
Идентификатор : 3
Формат : AC-3
Формат/Информация : Audio Coding 3
Расширение режима : CM (complete main)
Параметр Endianness формата : Big
Идентификатор кодека : A_AC3
Продолжительность : 1 ч. 35 м.
Вид битрейта : Постоянный
Битрейт : 192 Кбит/сек
Каналы : 2 канала
Расположение каналов : Front: L R
Частота : 48,0 КГц
Битовая глубина : 16 бит
Метод сжатия : С потерями
Размер потока : 132 Мбайт (4%)
Заголовок : А. Гаврилов
Язык : Russian
Default : Нет
Forced : Нет

Аудио #3
Идентификатор : 4
Формат : AC-3
Формат/Информация : Audio Coding 3
Расширение режима : CM (complete main)
Параметр Endianness формата : Big
Идентификатор кодека : A_AC3
Продолжительность : 1 ч. 35 м.
Вид битрейта : Постоянный
Битрейт : 192 Кбит/сек
Каналы : 2 канала
Расположение каналов : Front: L R
Частота : 48,0 КГц
Битовая глубина : 16 бит
Метод сжатия : С потерями
Размер потока : 132 Мбайт (4%)
Заголовок : Л. Володарский
Язык : Russian
Default : Нет
Forced : Нет

Аудио #4
Идентификатор : 5
Формат : AC-3
Формат/Информация : Audio Coding 3
Расширение режима : CM (complete main)
Параметр Endianness формата : Big
Идентификатор кодека : A_AC3
Продолжительность : 1 ч. 35 м.
Вид битрейта : Постоянный
Битрейт : 448 Кбит/сек
Каналы : 6 каналов
Расположение каналов : Front: L C R, Side: L R, LFE
Частота : 48,0 КГц
Битовая глубина : 16 бит
Метод сжатия : С потерями
Размер потока : 307 Мбайт (9%)
Язык : English
Default : Нет
Forced : Нет

Текст #1
Идентификатор : 6
Формат : UTF-8
Идентификатор кодека : S_TEXT/UTF8
Идентификатор кодека/Информация : UTF-8 Plain Text
Язык : Russian
Default : Нет
Forced : Нет

Текст #2
Идентификатор : 7
Формат : UTF-8
Идентификатор кодека : S_TEXT/UTF8
Идентификатор кодека/Информация : UTF-8 Plain Text
Язык : English
Default : Нет
Forced : Нет

Меню
00:00:00.000 : en:Chapter 01
00:13:23.427 : en:Chapter 02
00:20:28.852 : en:Chapter 03
00:33:37.640 : en:Chapter 04
00:41:16.474 : en:Chapter 05
00:49:12.950 : en:Chapter 06
00:55:12.309 : en:Chapter 07
01:00:17.613 : en:Chapter 08
01:08:38.739 : en:Chapter 09
01:14:07.067 : en:Chapter 10
01:19:54.414 : en:Chapter 11
01:30:05.024 : en:Chapter 12
Релиз:



Скачать Драка.в.Бэттл.Крик.Большая.драка.в.Беттл.Крик.The.Big.Brawl.The.Big.Creek.Brawl.(Роберт.Клауз).[1980.боевик.комедия.BDRip-AVC].[MVO]+[AVO]x2+[Оригинал]+[Sub].torrent без регистрации
Золото ЗОЛОТАЯ РАЗДАЧА! СКАЧАННОЕ НЕ ЗАСЧИТЫВАЕТСЯ! Золото
Дата: Зарегистрирован   [ Тип: внутренний ] Как тут cкачать?
MAGNET ссылка
MAGNET ссылка


Скачать .torrent

17 KB

Статус: проверено DHT
Скачан: торрент - 109 раз, раздача полностью - 7 раз
Размер: 3,2 GB
Оценка:  - (Голосов: 0)
Поблагодарили: 4
Поделиться ссылкой на эту раздачу с друзьями:
В контактеFacebookОдноклассникиTwitterLivejournalМой МирLiveinternet
 

 
Показать сообщения:    


Вы не можете начинать темы
Вы не можете отвечать на сообщения
Вы не можете редактировать свои сообщения
Вы не можете удалять свои сообщения
Вы не можете голосовать в опросах
Вы не можете прикреплять файлы к сообщениям
Вы можете скачивать файлы