Loading...
Error

/ Jurassic Park ( / Steven Spielberg) [1993, , , , BDRip] [Dub](2013) + Original (Eng) + Subs (Rus, Eng)

 
2,58 GB   |    :  134
1  [  0 KB/s  ]  
 

leon030982

[] 

/ Jurassic Park

: 1993
: / Universal Pictures, Amblin Entertainment
: , ,
: 02:06:42
: ( )
[ 2013 ]
:
C: ( + (Blu-ray 3D CEE)), ( .srt*)
:
/ Steven Spielberg
:
(Dr. Alan Grant), (Dr. Ellie Sattler), (Dr. Ian Malcolm), (John Hammond), (Tim Murphy), (Lex Murphy), (Dennis Nedry), (Robert Muldoon), (Donald Gennaro), . (Ray Arnold), .. (Henry Wu), . (Gerry Harding), (Juanito Rostagno), (Lewis Dodgson)
:
- -, . , .
, , , , , , .

| IMDB | |
: BDRip [JURASSIC_PARK_3D_G72_HDCLUB]
: AVI
: 720x384 (1.88:1), 23.976 fps, XviD build 73 ~2006 kbps avg, 0.30 bit/pixel
#1: 48 kHz, AC3 Dolby Digital, 3/2 (L,C,R,l,r) + LFE ch, ~448.00 kbps avg (RUS) Blu-ray 3D CEE
#2: 48 kHz, AC3 Dolby Digital, 3/2 (L,C,R,l,r) + LFE ch, ~448.00 kbps avg (ENG)

:

General
Complete name : D:\Park_Urskogo_perioda_1993_BDRip_[2.18]_by_Dalemake.avi
Format : AVI
Format/Info : Audio Video Interleave
Format profile : OpenDML
File size : 2.18 GiB
Duration : 2h 6mn
Overall bit rate : 2 461 Kbps
Writing application : VirtualDubMod 1.5.10.3 | www.virtualdub-fr.org || (build 2550/release)
Writing library : VirtualDubMod build 2550/release
Video
ID : 0
Format : MPEG-4 Visual
Format profile : Advanced Simple@L5
Format settings, BVOP : 2
Format settings, QPel : No
Format settings, GMC : No warppoints
Format settings, Matrix : Custom
Codec ID : XVID
Codec ID/Hint : XviD
Duration : 2h 6mn
Bit rate : 2 001 Kbps
Width : 720 pixels
Height : 384 pixels
Display aspect ratio : 1.85:1
Frame rate : 23.976 fps
Color space : YUV
Chroma subsampling : 4:2:0
Bit depth : 8 bits
Scan type : Progressive
Compression mode : Lossy
Bits/(Pixel*Frame) : 0.302
Stream size : 1.77 GiB (81%)
Writing library : XviD 73
Audio
ID : 1
Format : AC-3
Format/Info : Audio Coding 3
Mode extension : CM (complete main)
Format settings, Endianness : Big
Codec ID : 2000
Duration : 2h 6mn
Bit rate mode : Constant
Bit rate : 448 Kbps
Channel(s) : 6 channels
Channel positions : Front: L C R, Side: L R, LFE
Sampling rate : 48.0 KHz
Bit depth : 16 bits
Compression mode : Lossy
Stream size : 406 MiB (18%)
Alignment : Split accross interleaves
Interleave, duration : 42 ms (1.00 video frame)
Interleave, preload duration : 500 ms




...Jurassic.Park.(..Steven.Spielberg).[1993....BDRip].[Dub](2013).+.Original.(Eng).+.Subs.(Rus.Eng).torrent
  ! ! 
:   [ : ] c?
MAGNET
MAGNET


.torrent

14 KB

: DHT
: - 134 , - 20
: 2,58 GB
5 (: 3)
: 4
:
 FacebookTwitterLivejournal Liveinternet
 

 
: