Loading...
Error

Скачать Стюарт: Прошлая жизнь / Stuart: A Life Backwards (Дэвид Эттвуд / David Attwood) [2007, Драма, Биография, DVDRip] [AVO] (Ю. Сербин) торрент без регистрации

 
Статистика раздачи
Размер:  1,46 GB   |    Скачан:  218 раз
Сидов:  1  [  0 KB/s  ]  
 
Автор Сообщение

leon030982

[] 

Стюарт: Прошлая жизнь / Stuart: A Life Backwards


Год выпуска: 2007
Страна: Великобритания
Жанр: Драма, Биография
Продолжительность: 01:27:53
Перевод: Авторский (одноголосый закадровый) [Ю. Сербин]
Cубтитры: нет
Оригинальная аудиодорожка: нет

Режиссер: Дэвид Эттвуд / David Attwood

В ролях: Том Харди, Бенедикт Камбербэтч, Никола Даффетт, Клер-Луис Кордуэлл, Эдна Доре

Описание: 2000 год. На одном из собраний благотворительной организации “Помоги бездомным” молодой интеллигент Алекс Мастерс (Бен Камбербатч) знакомится со своим сверстником – бомжом Стюартом Шортером (Том Харди). Стоит сразу заметить, что Стюарт не простой бомж, он – перекрученный калека с мускульной дистрофией и искаженным голосом, а также бывший зек и наркоман. Хотя в целом – отличный парень.
Со временем интеллигент избавляется от страха и отвращения перед новым знакомым, и у них вскоре начинаются вполне товарищеские отношения. Теперь интеллигенту становится даже любопытно, как же Стюарт докатился до подобной жизни. Он начинает опрашивать друзей и родственников бомжа и постепенно узнает страшную и трагичную историю жизни своего приятеля.




Качество видео: DVDRip
Формат видео: AVI
Видео кодек: XviD
Аудио кодек:AC3
Видео: 720x400 (16:9), 25.000 fps,XviD build 73, ~2 176 kbps avg, 0.30 bit/pixel
Аудио: 48 kHz, AC3 Dolby Digital, 2/0 (L,R) ch, ~192 kbps avg (Ю. Сербин)
Фильм снят по книге Александра Мастерса, которая является биографией Стюарта Шортера.
General
Complete name : D:\Temp\STUART_A_LIFE_BACKWARDS.avi
Format : AVI
Format/Info : Audio Video Interleave
File size : 1.46 GiB
Duration : 1h 27mn
Overall bit rate : 2 377 Kbps
Writing application : VirtualDubMod 1.5.10.2 (build 2540/release)
Writing library : VirtualDubMod build 2540/release
Video
ID : 0
Format : MPEG-4 Visual
Format profile : Advanced Simple@L5
Format settings, BVOP : 1
Format settings, QPel : No
Format settings, GMC : No warppoints
Format settings, Matrix : Custom
Codec ID : XVID
Codec ID/Hint : XviD
Duration : 1h 27mn
Bit rate : 2 176 Kbps
Width : 720 pixels
Height : 400 pixels
Display aspect ratio : 16:9
Frame rate : 25.000 fps
Color space : YUV
Chroma subsampling : 4:2:0
Bit depth : 8 bits
Scan type : Progressive
Compression mode : Lossy
Bits/(Pixel*Frame) : 0.302
Stream size : 1.34 GiB (92%)
Writing library : XviD 73
Audio
ID : 1
Format : AC-3
Format/Info : Audio Coding 3
Mode extension : CM (complete main)
Format settings, Endianness : Big
Codec ID : 2000
Duration : 1h 27mn
Bit rate mode : Constant
Bit rate : 192 Kbps
Channel(s) : 2 channels
Channel positions : Front: L R
Sampling rate : 48.0 KHz
Bit depth : 16 bits
Compression mode : Lossy
Stream size : 121 MiB (8%)
Alignment : Split accross interleaves
Interleave, duration : 40 ms (1.00 video frame)
Interleave, preload duration : 500 ms





Скачать Стюарт.Прошлая.жизнь.Stuart.A.Life.Backwards.(Дэвид.Эттвуд.David.Attwood).[2007.Драма.Биография.DVDRip].[AVO].(Ю.Сербин).torrent без регистрации
Золото ЗОЛОТАЯ РАЗДАЧА! СКАЧАННОЕ НЕ ЗАСЧИТЫВАЕТСЯ! Золото
Дата: Зарегистрирован   [ Тип: внутренний ] Как тут cкачать?
MAGNET ссылка
MAGNET ссылка


Скачать .torrent

15 KB

Статус: проверено DHT
Скачан: торрент - 218 раз, раздача полностью - 43 раз
Размер: 1,46 GB
Оценка:  5 (Голосов: 1)
Поблагодарили: 1
Поделиться ссылкой на эту раздачу с друзьями:
В контактеFacebookОдноклассникиTwitterLivejournalМой МирLiveinternet
 

 
Показать сообщения:    


Вы не можете начинать темы
Вы не можете отвечать на сообщения
Вы не можете редактировать свои сообщения
Вы не можете удалять свои сообщения
Вы не можете голосовать в опросах
Вы не можете прикреплять файлы к сообщениям
Вы можете скачивать файлы