Loading...
Error

Скачать Черепашки-ниндзя 2: Тайна изумрудного зелья / Teenage Mutant Ninja Turtles II: The Secret of the Ooze (Майкл Прессмэн) [1991, фантастический боевик, комедия, семейное кино, восточные единоборства, BDRip] [MVO] (РЕН-ТВ) торрент без регистрации

 
Статистика раздачи
Размер:  745 MB   |    Скачан:  129 раз
Сидов:  1  [  0 KB/s  ]  
 
Автор Сообщение

Marsianka

[] 

Год выпуска: 1991
Страна: США
Студия: New Line Cinema

Жанр: фантастический боевик, комедия, семейное кино, восточные единоборства
Продолжительность: 01:28:33

Перевод: Многоголосный (закадровый) - РЕН-ТВ,
Субтитры: нет
Оригинальная аудио дорожка: нет

Режиссер: Майкл Прессмэн

В ролях: Майкл Джей Уайт, Пейдж Турко, Дэвид Уорнер, Эрни Рейес, Франсуа Чау, Суси Эссман, Майкл Прессмэн, Фрэнк Уэлкер, Майк Киммел

Описание: Битва продолжается и нет ей конца. На этот раз их подруга Эйприл случайным образом обнаружила откуда родом эта радиоактивная жидкость, которая помогла им мутировать. Но Шредер тоже не так глуп, как кажется, его помощники смогли раздобыть такую же колбу. Шредер начал создавать мутантов для борьбы с черепахами. Но и сам после получения хорошего пинка от черепах угодил в эту слизь и начал мутировать в Супер-Шредера. И сейчас у черепах не одна проблема, а целых три. Это Шредер и два его мутанта (Токо и Рейзор). Решить их не так то просто, так как каждая из проблем раза в два больше ростом и силой чем черепашка...

Исходник: BDRemux
Качество: BDRip
Формат: AVI

Видео: 688x368 (1,870:1), 23,976 fps, XviD ~ 1040 kbps avg, 0.171 bit/pixel
Аудио: 48 kHz, MP3 2.0, 128 kbps Русский [РЕН-ТВ]

Раздача от:

Общее
Полное имя : Cherepashki-nindzja.2.Tajna.izumrudnogo.zel'ja.1991.BDRip.745MB.avi
Формат : AVI
Формат/Информация : Audio Video Interleave
Размер файла : 745 Мбайт
Продолжительность : 1 ч. 28 м.
Общий поток : 1177 Кбит/сек
Программа кодирования : VirtualDubModRus 1.5.10.2 (build 2542/release)
Библиотека кодирования : VirtualDubMod build 2542/release

Видео
Идентификатор : 0
Формат : MPEG-4 Visual
Профиль формата : Advanced Simple@L5
Параметр BVOP формата : 1
Параметр QPel формата : Нет
Параметр GMC формата : Без точки перехода
Параметр матрицы формата : Выборочная
Идентификатор кодека : XVID
Идентификатор кодека/Подсказка : XviD
Продолжительность : 1 ч. 28 м.
Битрейт : 1040 Кбит/сек
Ширина : 688 пикселей
Высота : 368 пикселей
Соотношение сторон : 1,870
Частота кадров : 23,976 кадра/сек
Цветовое пространство : YUV
Субдискретизация насыщенности : 4:2:0
Битовая глубина : 8 бит
Тип развёртки : Прогрессивная
Метод сжатия : С потерями
Бит/(Пиксели*Кадры) : 0.171
Размер потока : 658 Мбайт (88%)
Библиотека кодирования : XviD 64

Аудио
Идентификатор : 1
Формат : MPEG Audio
Версия формата : Version 1
Профиль формата : Layer 3
Режим : Joint stereo
Расширение режима : MS Stereo
Идентификатор кодека : 55
Идентификатор кодека/Подсказка : MP3
Продолжительность : 1 ч. 28 м.
Вид битрейта : Постоянный
Битрейт : 128 Кбит/сек
Каналы : 2 канала
Частота : 48,0 КГц
Метод сжатия : С потерями
Размер потока : 81,1 Мбайт (11%)
Выравнивание : Соединение по промежуткам
Продолжительность промежутка : 42 мс. (1,00 видеокадр)
Время предзагрузки промежутка : 504 мс



Скачать Черепашки-ниндзя.2.Тайна.изумрудного.зелья.Teenage.Mutant.Ninja.Turtles.II.The.Secret.of.the.Ooze.(Майкл.Прессмэн).[1991.фантастический.боевик.комедия.семейное.кино.восточные.единоборства.BDRip].[MVO].(РЕН-ТВ).torrent без регистрации
Золото ЗОЛОТАЯ РАЗДАЧА! СКАЧАННОЕ НЕ ЗАСЧИТЫВАЕТСЯ! Золото
Дата: Зарегистрирован   [ Тип: внутренний ] Как тут cкачать?
MAGNET ссылка
MAGNET ссылка


Скачать .torrent

15 KB

Статус: проверено DHT
Скачан: торрент - 129 раз, раздача полностью - 25 раз
Размер: 745 MB
Оценка:  - (Голосов: 0)
Поблагодарили: 5
Поделиться ссылкой на эту раздачу с друзьями:
В контактеFacebookОдноклассникиTwitterLivejournalМой МирLiveinternet
 

 

cbale

[] 

круууутаааата
 
Показать сообщения:    


Вы не можете начинать темы
Вы не можете отвечать на сообщения
Вы не можете редактировать свои сообщения
Вы не можете удалять свои сообщения
Вы не можете голосовать в опросах
Вы не можете прикреплять файлы к сообщениям
Вы можете скачивать файлы