Loading...
Error

Скачать Коммандос / Commando (Марк Л. Лестер / Mark L. Lester) [1985, Боевик, BDRip] [Dub] (Хлопушка) + [AVO] (А.Гаврилов) + [VO] (Д.Пучков ака "Гоблин") торрент без регистрации

 
Статистика раздачи
Размер:  1,7 GB   |    Скачан:  158 раз
Сидов:  1  [  0 KB/s  ]  
 
Автор Сообщение

leon030982

[] 

Коммандос / Commando


Год выпуска: 1985
Страна: США
Жанр: Боевик
Продолжительность: 01:30:15
Перевод №1: Профессиональный (дублированный) [Хлопушка]
Перевод №2: Авторский (одноголосный) [А.Гаврилов]
Перевод №3: Профессиональный (одноголосный) [Д.Пучков ака "Гоблин"]
Cубтитры: нет

Режиссер: Марк Л. Лестер / Mark L. Lester

В ролях: Арнольд Шварценеггер (John Matrix), Рей Дон Чон (Cindy), Дэн Хедайя (Arius), Вернон Уэллс (Bennett), Джеймс Олсон (Gen. Franklin Kirby), Дэвид Патрик Келли (Sully), Алисса Милано (Jenny Matrix), Билл Дьюк (Cooke), Дрю Снайдер (Lawson), Шарон Виатт (Leslie), Майкл Делано (Forrestal), Боб Майнор (Jackson)

Описание: Полковник в отставке Джон Матрикс - бывший командир спецотряда, участвовавшего в секретных операциях на Ближнем Востоке, СССР и Центральной Америке. Находясь в отличной физической форме и владея знаниями, которые делают его супер-солдатом, полковник в отставке Джон Матрикс живет под другим именем в большом доме со своей дочерью вдали от города.
Но спокойную жизнь нарушает его старый враг, похищая 11-ти летнюю дочь полковника. И вспыхнувший ненавистью Джон Матрикс безжалостно убивает всех, кто становится у него на пути к спасению любимой дочери.




Качество видео: BDRip (источник: /BD-Remux/ 1080p)
Формат видео: AVI
Видео кодек: XviD
Аудио кодек: AC3
Видео: 704x384 (1.83:1), 23.976 fps, XviD build 50 ~2099 kbps avg, 0.32 bit/pixel
Аудио №1: 48 kHz, AC3 Dolby Digital, 1/0 (C) ch, ~192.00 kbps avg [Хлопушка]
Аудио №2: 48 kHz, AC3 Dolby Digital, 2/0 (L,R) ch, ~192.00 kbps avg [А.Гаврилов]
Аудио №3: 48 kHz, AC3 Dolby Digital, 2/0 (L,R) ch, ~192.00 kbps avg [Д.Пучков ака "Гоблин"]
E:\Commando.1985.BDRip.[DUB]+[Gavrilov]+[Goblin].avi
General
Complete name : E:\Commando.1985.BDRip.[DUB]+[Gavrilov]+[Goblin].avi
Format : AVI
Format/Info : Audio Video Interleave
File size : 1.70 GiB
Duration : 1h 30mn
Overall bit rate : 2 696 Kbps
Movie name : Commando.1985.BDRip.[DUB]+[Gavrilov]+[Goblin].avi
Writing application : VirtualDubMod 1.5.10.3 (build 2550/release)
Writing library : VirtualDubMod build 2550/release
Video #0
ID : 0
Format : MPEG-4 Visual
Format profile : Advanced Simple@L5
Format settings, BVOP : 1
Format settings, QPel : No
Format settings, GMC : No warppoints
Format settings, Matrix : Custom
Codec ID : XVID
Codec ID/Hint : XviD
Duration : 1h 30mn
Bit rate : 2 101 Kbps
Width : 704 pixels
Height : 384 pixels
Display aspect ratio : 1.85:1
Frame rate : 23.976 fps
Color space : YUV
Chroma subsampling : 4:2:0
Bit depth : 8 bits
Scan type : Progressive
Compression mode : Lossy
Bits/(Pixel*Frame) : 0.324
Stream size : 1.32 GiB (78%)
Writing library : XviD 1.2.1 (UTC 2008-12-04)
Audio #1
ID : 1
Format : AC-3
Format/Info : Audio Coding 3
Mode extension : CM (complete main)
Format settings, Endianness : Big
Codec ID : 2000
Duration : 1h 30mn
Bit rate mode : Constant
Bit rate : 192 Kbps
Channel(s) : 1 channel
Channel positions : Front: C
Sampling rate : 48.0 KHz
Bit depth : 16 bits
Compression mode : Lossy
Stream size : 124 MiB (7%)
Alignment : Split accross interleaves
Interleave, duration : 42 ms (1.00 video frame)
Interleave, preload duration : 500 ms
Audio #2
ID : 2
Format : AC-3
Format/Info : Audio Coding 3
Mode extension : CM (complete main)
Format settings, Endianness : Big
Codec ID : 2000
Duration : 1h 30mn
Bit rate mode : Constant
Bit rate : 192 Kbps
Channel(s) : 2 channels
Channel positions : Front: L R
Sampling rate : 48.0 KHz
Bit depth : 16 bits
Compression mode : Lossy
Stream size : 124 MiB (7%)
Alignment : Split accross interleaves
Interleave, duration : 42 ms (1.00 video frame)
Interleave, preload duration : 500 ms
Audio #3
ID : 3
Format : AC-3
Format/Info : Audio Coding 3
Mode extension : CM (complete main)
Format settings, Endianness : Big
Codec ID : 2000
Duration : 1h 30mn
Bit rate mode : Constant
Bit rate : 192 Kbps
Channel(s) : 2 channels
Channel positions : Front: L R
Sampling rate : 48.0 KHz
Bit depth : 16 bits
Compression mode : Lossy
Stream size : 124 MiB (7%)
Alignment : Split accross interleaves
Interleave, duration : 42 ms (1.00 video frame)
Interleave, preload duration : 500 ms




Скачать Коммандос.Commando.(Марк.Л.Лестер.Mark.L.Lester).[1985.Боевик.BDRip].[Dub].(Хлопушка).+.[AVO].(А.Гаврилов).+.[VO].(Д.Пучков.ака."Гоблин").torrent без регистрации
Золото ЗОЛОТАЯ РАЗДАЧА! СКАЧАННОЕ НЕ ЗАСЧИТЫВАЕТСЯ! Золото
Дата: Зарегистрирован   [ Тип: внутренний ] Как тут cкачать?
MAGNET ссылка
MAGNET ссылка


Скачать .torrent

18 KB

Статус: проверено DHT
Скачан: торрент - 158 раз, раздача полностью - 33 раз
Размер: 1,7 GB
Оценка:  5 (Голосов: 2)
Поблагодарили: 4
Поделиться ссылкой на эту раздачу с друзьями:
В контактеFacebookОдноклассникиTwitterLivejournalМой МирLiveinternet
 

 
Показать сообщения:    


Вы не можете начинать темы
Вы не можете отвечать на сообщения
Вы не можете редактировать свои сообщения
Вы не можете удалять свои сообщения
Вы не можете голосовать в опросах
Вы не можете прикреплять файлы к сообщениям
Вы можете скачивать файлы