Loading...
Error

Скачать Падение Римской империи / The Fall of the Roman Empire (Энтони Манн) [1964, Драма, военный, история, BDRip] [AVC] [Sheikn] [MVO] торрент без регистрации

 
Статистика раздачи
Размер:  4,63 GB   |    Скачан:  128 раз
Сидов:  1  [  0 KB/s  ]  
 
Автор Сообщение

Sheikn

[] 

Информация о фильме
Название: Падение Римской империи
Оригинальное название: The Fall of the Roman Empire
Год выхода: 1964
Жанр: Драма, военный, история
Режиссер: Энтони Манн
В ролях: Софи Лорен, Стивен Бойд, Алек Гиннесс, Джеймс Мейсон, Кристофер Пламмер, Энтони Куэйл, Джон Айрленд, Омар Шариф, Мел Феррер, Эрик Портер, Финлэй Карри, Эндрю Кир, Дуглас Уилмер, Джордж Мёрселл, Норман Вуленд, Майкл Гвинн, Виржилиу Тейшейра, Питер Дэймон, Рафаэль Луис Калво, Лена фон Мартенс, Роланд Кэри, Маргарет Фуллер, Габриэлла Ликуди, Джеффри ОКелли, Роберт Ритти, Гай Рольф, Фридрих фон Ледебур

О фильме: Правлению императора Марка Аврелия приходит конец, умирая, он назначает своим преемником не сына Комадаса, а полководца Гая Ливия, влюбленного в его дочь. Именно из-за этого Комадас все-таки приходит к власти и ситуация в Римской империи резко меняется: рушатся все военные и политические достижения, племена варваров вместе с предводителями бывших имперских провинций нападают на ослабевший Рим.



Страна: США / Samuel Bronston Productions
Продолжительность: 02:59:57
Перевод: Профессиональный, многоголосый
Дата релиза: 10.08.2013

Файл
Кодек: MPEG-4 AVC
Качество: BDRip (AVC)
Видео: 1024x432, 2786 Кбит/с
Звук: Русский, английский (АС3, 6 ch, 448 Кбит/с)

Семпл
Unique ID : 171418111265949354713256747243526576638 (0x80F5ED66CAE30A9F8BAEC6C4C33A59FE)
Complete name : D:Padenie.Rimskoj.imperii.1964.х264.BDRip.(AVC).Sheikn.mkv
Format : Matroska
Format version : Version 2
File size : 4.63 GiB
Duration : 2h 59mn
Overall bit rate : 3 684 Kbps
Encoded date : UTC 2013-01-25 13:12:37
Writing application : mkvmerge v4.0.0 ('The Stars were mine') сборка от Jun 6 2010 16:18:42
Writing library : libebml v1.0.0 + libmatroska v1.0.0
Video #1
ID : 1
Format : AVC
Format/Info : Advanced Video Codec
Format profile : Main@L3.1
Format settings, CABAC : Yes
Format settings, ReFrames : 5 frames
Codec ID : V_MPEG4/ISO/AVC
Duration : 2h 59mn
Bit rate : 2 786 Kbps
Width : 1 024 pixels
Height : 432 pixels
Display aspect ratio : 2.40:1
Frame rate mode : Constant
Frame rate : 23.976 fps
Color space : YUV
Chroma subsampling : 4:2:0
Bit depth : 8 bits
Scan type : Progressive
Bits/(Pixel*Frame) : 0.263
Stream size : 3.41 GiB (74%)
Writing library : x264 core 65
Encoding settings : cabac=1 / ref=5 / deblock=1:-2:-2 / analyse=0x1:0x111 / me=umh / subme=6 / psy_rd=1.0:0.0 / mixed_ref=0 / me_range=30 / chroma_me=1 / trellis=2 / 8x8dct=0 / cqm=0 / deadzone=21,11 / chroma_qp_offset=-2 / threads=6 / nr=0 / decimate=1 / mbaff=0 / bframes=2 / b_pyramid=0 / b_adapt=1 / b_bias=0 / direct=1 / wpredb=0 / keyint=240 / keyint_min=24 / scenecut=40(pre) / rc=2pass / bitrate=2786 / ratetol=1.0 / qcomp=0.60 / qpmin=10 / qpmax=51 / qpstep=4 / cplxblur=20.0 / qblur=0.5 / ip_ratio=1.40 / pb_ratio=1.30 / aq=1:1.00
Language : English
Default : Yes
Forced : No
Color primaries : BT.709
Transfer characteristics : BT.709
Matrix coefficients : BT.709
Audio #2
ID : 2
Format : AC-3
Format/Info : Audio Coding 3
Mode extension : CM (complete main)
Format settings, Endianness : Big
Codec ID : A_AC3
Duration : 2h 59mn
Bit rate mode : Constant
Bit rate : 448 Kbps
Channel(s) : 6 channels
Channel positions : Front: L C R, Side: L R, LFE
Sampling rate : 48.0 KHz
Bit depth : 16 bits
Compression mode : Lossy
Stream size : 577 MiB (12%)
Title : Профессиональный, многоголосый
Language : Russian
Default : Yes
Forced : No
Audio #3
ID : 3
Format : AC-3
Format/Info : Audio Coding 3
Mode extension : CM (complete main)
Format settings, Endianness : Big
Codec ID : A_AC3
Duration : 2h 59mn
Bit rate mode : Constant
Bit rate : 448 Kbps
Channel(s) : 6 channels
Channel positions : Front: L C R, Side: L R, LFE
Sampling rate : 48.0 KHz
Bit depth : 16 bits
Compression mode : Lossy
Stream size : 577 MiB (12%)
Title : Оригинал
Language : English
Default : No
Forced : No

Трактовка исторических событий
Трактовка событий в фильме «Падение римской империи» сильно отличается от современных представлений историков. Можно сказать, что данный фильм это больше вымысел, частично базирующийся на исторических фактах.
Так, согласно сюжету фильма, Марка Аврелия отравили заговорщики, тогда как по мнению историков, он скончался в походе от чумы. «Битва четырёх армий» и союз с парфянами, показанные в фильме, также не имели места в исторической реальности того периода.

Награды:

Оскар, 1965 год
Номинации (1):
- Лучший саундтрек

Золотой глобус, 1965 год
Победитель (1):
- Лучший саундтрек

Фильм «Гладиатор», вышедший на экран в 2000 году и возродивший интерес к пеплумам, можно считать своего рода спин-оффом «Падения Римской империи». В нём также фигурируют в качестве главных героев император Коммод и его сестра Луцилла.

С Днем Рождения сердечно поздравляю "Левушку" Алексея и "Труженицу пчёлку" Наталью всего вам лутчшего. Релиз посвящаю лично вам
Пусть всё плохое проходит мимо,
Кроме денег и интима!!! :)
Релиз от:



Скачать Падение.Римской.империи.The.Fall.of.the.Roman.Empire.(Энтони.Манн).[1964.Драма.военный.история.BDRip].[AVC].[Sheikn].[MVO].torrent без регистрации
Золото ЗОЛОТАЯ РАЗДАЧА! СКАЧАННОЕ НЕ ЗАСЧИТЫВАЕТСЯ! Золото
Дата: Зарегистрирован   [ Тип: внутренний ] Как тут cкачать?
MAGNET ссылка
MAGNET ссылка


Скачать .torrent

47 KB

Статус: проверено DHT
Скачан: торрент - 128 раз, раздача полностью - 90 раз
Размер: 4,63 GB
Оценка:  - (Голосов: 0)
Поблагодарили: 5
Поделиться ссылкой на эту раздачу с друзьями:
В контактеFacebookОдноклассникиTwitterLivejournalМой МирLiveinternet
 

 
Показать сообщения:    


Вы не можете начинать темы
Вы не можете отвечать на сообщения
Вы не можете редактировать свои сообщения
Вы не можете удалять свои сообщения
Вы не можете голосовать в опросах
Вы не можете прикреплять файлы к сообщениям
Вы можете скачивать файлы