Loading...
Error

Скачать Киллер / Killshot (Джон Мэдден) [2008, боевик, триллер, драма, BDRip-AVC] [Dub] торрент без регистрации

 
Статистика раздачи
Размер:  2,19 GB   |    Скачан:  117 раз
Сидов:  1  [  0 KB/s  ]  
 
Автор Сообщение

МихаНЕзатор

[] 

Год выпуска: 2008
Производство: США / FilmColony, Lawrence Bender Productions, Road Rebel, The Weinstein Company LLC
Жанр: боевик, триллер, драма
Продолжительность: 01:35:10
Перевод: Профессиональный (полное дублирование)
Субтитры: Русские, английские
Навигация по главам: Есть
Режиссер: Джон Мэдден / John Madden

В ролях: Дайан Лэйн, Микки Рурк, Томас Джейн, Джозеф Гордон-Левитт, Розарио Доусон, Алексис Батлер, Хэл Холбрук, Брэндон МакГибон, Роберт Гоу, Катрин Хэйос

О фильме:
Черный Дрозд киллер. По его собственному признанию, он «отстреливает людей. Иногда за бабки, иногда просто так». Однажды, когда Черный Дрозд и его дружок Ричи отправились на дело осуществить задуманное им помешали Кармен и Уэйн Колсоны. С этого момента супруги обречены, так как становятся очередной мишенью профессионального убийцы.


Качество: BDRip-AVC [Blu-ray Remux]
Формат: MKV
Видео: х.264, 1084x460 (2,35:1), 24,000 fps, 2521 Кbps, 0.211 bit/pixel
Аудио#1: 48 kHz, AC3 Dolby Digital, 3/2 (L,C,R,l,r) + LFE ch, 384.00 kbps | RUS
Аудио#2: 48 kHz, AC3 Dolby Digital, 3/2 (L,C,R,l,r) + LFE ch, 384.00 kbps | ENG

Релиз от:
Автор рипа: potroks

Общее
Уникальный идентификатор : 221172267361410063280093103801221978044 (0xA6643AB0A5E92FA3B81306EA97D317BC)
Полное имя : Killer.2008.DUAL.BDRip.x264.-HELLYWOOD.mkv
Формат : Matroska
Версия формата : Version 2
Размер файла : 2,19 Гбайт
Продолжительность : 1 ч. 35 м.
Общий поток : 3290 Кбит/сек
Название фильма : HELLYWOOD
Дата кодирования : UTC 2013-08-06 18:40:23
Программа кодирования : mkvmerge v5.9.0 ('On The Loose') built on Dec 15 2012 16:39:58
Библиотека кодирования : libebml v1.3.0 + libmatroska v1.4.0

Видео
Идентификатор : 1
Формат : AVC
Формат/Информация : Advanced Video Codec
Профиль формата : High@L4.1
Параметр CABAC формата : Да
Параметр ReFrames формата : 9 кадров
Идентификатор кодека : V_MPEG4/ISO/AVC
Продолжительность : 1 ч. 35 м.
Битрейт : 2521 Кбит/сек
Ширина : 1084 пикселя
Высота : 460 пикселей
Соотношение сторон : 2,35:1
Режим частоты кадров : Постоянный
Частота кадров : 24,000 кадра/сек
Цветовое пространство : YUV
Субдискретизация насыщенности : 4:2:0
Битовая глубина : 8 бит
Тип развёртки : Прогрессивная
Бит/(Пиксели*Кадры) : 0.211
Размер потока : 1,63 Гбайт (75%)
Заголовок : Killshot
Библиотека кодирования : x264 core 130 r2273 b3065e6
Настройки программы : cabac=1 / ref=9 / deblock=1:-2:-2 / analyse=0x3:0x133 / me=umh / subme=11 / psy=1 / psy_rd=1.04:0.01 / mixed_ref=1 / me_range=32 / chroma_me=1 / trellis=2 / 8x8dct=1 / cqm=0 / deadzone=21,11 / fast_pskip=0 / chroma_qp_offset=-3 / threads=9 / lookahead_threads=2 / sliced_threads=0 / nr=0 / decimate=1 / interlaced=0 / bluray_compat=0 / constrained_intra=0 / bframes=10 / b_pyramid=2 / b_adapt=2 / b_bias=0 / direct=3 / weightb=1 / open_gop=0 / weightp=2 / keyint=240 / keyint_min=23 / scenecut=40 / intra_refresh=0 / rc_lookahead=150 / rc=2pass / mbtree=1 / bitrate=2521 / ratetol=1.0 / qcomp=0.70 / qpmin=0 / qpmax=69 / qpstep=4 / cplxblur=20.0 / qblur=0.5 / vbv_maxrate=20000 / vbv_bufsize=25000 / nal_hrd=none / ip_ratio=1.35 / aq=1:0.80
Язык : English
Default : Да
Forced : Нет

Аудио #1
Идентификатор : 2
Формат : AC-3
Формат/Информация : Audio Coding 3
Расширение режима : CM (complete main)
Параметр Endianness формата : Big
Идентификатор кодека : A_AC3
Продолжительность : 1 ч. 35 м.
Вид битрейта : Постоянный
Битрейт : 384 Кбит/сек
Каналы : 6 каналов
Расположение каналов : Front: L C R, Side: L R, LFE
Частота : 48,0 КГц
Битовая глубина : 16 бит
Метод сжатия : С потерями
Размер потока : 261 Мбайт (12%)
Заголовок : Dub | DD 5.1 @ 384 kbps
Язык : Russian
Default : Да
Forced : Да

Аудио #2
Идентификатор : 3
Формат : AC-3
Формат/Информация : Audio Coding 3
Расширение режима : CM (complete main)
Параметр Endianness формата : Big
Идентификатор кодека : A_AC3
Продолжительность : 1 ч. 35 м.
Вид битрейта : Постоянный
Битрейт : 384 Кбит/сек
Каналы : 6 каналов
Расположение каналов : Front: L C R, Side: L R, LFE
Частота : 48,0 КГц
Битовая глубина : 16 бит
Метод сжатия : С потерями
Размер потока : 261 Мбайт (12%)
Заголовок : Original | DD 5.1 @ 384 kbps
Язык : English
Default : Нет
Forced : Нет

Текст #1
Идентификатор : 4
Формат : UTF-8
Идентификатор кодека : S_TEXT/UTF8
Идентификатор кодека/Информация : UTF-8 Plain Text
Язык : Russian
Default : Нет
Forced : Нет

Текст #2
Идентификатор : 5
Формат : UTF-8
Идентификатор кодека : S_TEXT/UTF8
Идентификатор кодека/Информация : UTF-8 Plain Text
Язык : English
Default : Нет
Forced : Нет

Меню
00:00:00.000 : en:00:00:00.000
00:01:37.417 : en:00:01:37.417
00:11:13.250 : en:00:11:13.250
00:20:42.125 : en:00:20:42.125
00:31:38.750 : en:00:31:38.750
00:41:38.375 : en:00:41:38.375
00:55:22.833 : en:00:55:22.833
01:01:46.833 : en:01:01:46.833
01:09:11.833 : en:01:09:11.833
01:14:37.625 : en:01:14:37.625
01:23:33.625 : en:01:23:33.625
01:29:39.208 : en:01:29:39.208
x264 [info]: frame I:1041 Avg QP:16.43 size: 78821
x264 [info]: frame P:29660 Avg QP:19.24 size: 26608
x264 [info]: frame B:106339 Avg QP:21.24 size: 8721
x264 [info]: consecutive B-frames: 2.4% 3.6% 6.7% 17.3% 14.2% 45.2% 5.2% 0.9% 2.7% 1.1% 0.8%
x264 [info]: mb I I16..4: 7.3% 74.3% 18.3%
x264 [info]: mb P I16..4: 1.7% 6.9% 1.4% P16..4: 30.4% 36.6% 14.5% 2.1% 0.2% skip: 6.2%
x264 [info]: mb B I16..4: 0.9% 0.8% 0.2% B16..8: 37.9% 21.0% 3.8% direct: 5.0% skip:30.4% L0:44.2% L1:45.0% BI:10.7%
x264 [info]: 8x8 transform intra:61.2% inter:60.4%
x264 [info]: direct mvs spatial:98.3% temporal:1.7%
x264 [info]: coded y,uvDC,uvAC intra: 68.2% 62.3% 44.0% inter: 29.5% 18.3% 3.9%
x264 [info]: i16 v,h,dc,p: 84% 7% 3% 6%
x264 [info]: i8 v,h,dc,ddl,ddr,vr,hd,vl,hu: 8% 7% 9% 10% 15% 14% 13% 12% 12%
x264 [info]: i4 v,h,dc,ddl,ddr,vr,hd,vl,hu: 10% 8% 23% 7% 12% 12% 11% 9% 9%
x264 [info]: i8c dc,h,v,p: 29% 44% 14% 13%
x264 [info]: Weighted P-Frames: Y:2.0% UV:0.7%
x264 [info]: ref P L0: 43.3% 11.2% 19.2% 6.8% 6.3% 4.4% 4.1% 2.1% 2.3% 0.3% 0.0%
x264 [info]: ref B L0: 70.8% 12.9% 6.2% 3.3% 2.9% 2.1% 1.4% 0.4%
x264 [info]: ref B L1: 92.6% 7.4%
x264 [info]: kb/s:2519.96
encoded 137040 frames, 7.75 fps, 2519.96 kb/s

TIME
------------------------------
Общее время кодирования: 6 hour 7 min 48 sec
Файл получился на: 1716.29 mb



Скачать Киллер.Killshot.(Джон.Мэдден).[2008.боевик.триллер.драма.BDRip-AVC].[Dub].torrent без регистрации
Золото ЗОЛОТАЯ РАЗДАЧА! СКАЧАННОЕ НЕ ЗАСЧИТЫВАЕТСЯ! Золото
Дата: Зарегистрирован   [ Тип: внутренний ] Как тут cкачать?
MAGNET ссылка
MAGNET ссылка


Скачать .torrent

12 KB

Статус: проверено DHT
Скачан: торрент - 117 раз, раздача полностью - 21 раз
Размер: 2,19 GB
Оценка:  - (Голосов: 0)
Поблагодарили: 1
Поделиться ссылкой на эту раздачу с друзьями:
В контактеFacebookОдноклассникиTwitterLivejournalМой МирLiveinternet
 

 
Показать сообщения:    


Вы не можете начинать темы
Вы не можете отвечать на сообщения
Вы не можете редактировать свои сообщения
Вы не можете удалять свои сообщения
Вы не можете голосовать в опросах
Вы не можете прикреплять файлы к сообщениям
Вы можете скачивать файлы