Loading...
Error

Скачать Попутчик / The Hitcher ((Дэйв Мейерс) [2007, боевик, триллер, криминал, BDRip-AVC] [Dub]+[Eng] торрент без регистрации

 
Статистика раздачи
Размер:  2,19 GB   |    Скачан:  113 раз
Сидов:  1  [  0 KB/s  ]  
 
Автор Сообщение

МихаНЕзатор

[] 

Год выпуска: 2007
Производство: США / Rogue Pictures, Intrepid Pictures
Жанр: боевик, триллер, криминал
Продолжительность: 01:24:13
Перевод: Профессиональный (полное дублирование)
Субтитры: Русские, русские (Киномания), английские, английские (SDH)
Навигация по главам: Есть
Режиссер: Дэйв Мейерс / Dave Meyers

В ролях: Шон Бин, София Буш, Захари Найтон, Нил МакДонаф, Кайл Дэвис, Скип О`Брайэн, Дэнни Болеро, Джеффри Хатчинсон, Яра Мартинез

О фильме:
Римейк одноименного триллера 1986 года Роберта Хармона с Рутгером Хауэром и Дженнифер Джейсон Ли.
Зловещей промозглой ночью на распутье калифорнийских дорог молодая пара сажает в машину одинокого попутчика. Они соглашаются его подвезти, не подозревая, какой опасности себя подвергают. Ночной пассажир оказывается изощренным и безжалостным маньяком, сеющим смерть на своем пути...

Бюджет: $20 000 000

Качество: BDRip-AVC [Blu-ray Remux]
Формат: MKV
Видео: х.264, 1056x440 (2,40:1), 23,976 fps, 2482 Кbps, 0.223 bit/pixel
Аудио#1: 48 kHz, AC3 Dolby Digital, 3/2 (L,C,R,l,r) + LFE ch, 448.00 kbps | RUS
Аудио#2: 48 kHz, AC3 Dolby Digital, 3/2 (L,C,R,l,r) + LFE ch, 448.00 kbps | ENG

Релиз от:
Автор рипа: potroks

Общее
Уникальный идентификатор : 174234818874555883540450389311449186651 (0x831467CF03B0F6B799D380C5DB5FC15B)
Полное имя : Poputchik.2007.DUAL.BDRip.x264.-HELLYWOOD.mkv
Формат : Matroska
Версия формата : Version 2
Размер файла : 2,03 Гбайт
Продолжительность : 1 ч. 24 м.
Общий поток : 3447 Кбит/сек
Название фильма : HELLYWOOD - rip by potroks
Дата кодирования : UTC 2013-08-08 15:08:16
Программа кодирования : mkvmerge v5.9.0 ('On The Loose') built on Dec 15 2012 16:39:58
Библиотека кодирования : libebml v1.3.0 + libmatroska v1.4.0

Видео
Идентификатор : 1
Формат : AVC
Формат/Информация : Advanced Video Codec
Профиль формата : High@L4.1
Параметр CABAC формата : Да
Параметр ReFrames формата : 10 кадров
Идентификатор кодека : V_MPEG4/ISO/AVC
Продолжительность : 1 ч. 24 м.
Битрейт : 2482 Кбит/сек
Номинальный битрейт : 2820 Кбит/сек
Ширина : 1056 пикселей
Высота : 440 пикселей
Соотношение сторон : 2,40:1
Режим частоты кадров : Постоянный
Частота кадров : 23,976 кадра/сек
Цветовое пространство : YUV
Субдискретизация насыщенности : 4:2:0
Битовая глубина : 8 бит
Тип развёртки : Прогрессивная
Бит/(Пиксели*Кадры) : 0.223
Размер потока : 1,46 Гбайт (72%)
Заголовок : The Hitcher
Библиотека кодирования : x264 core 130 r2273 b3065e6
Настройки программы : cabac=1 / ref=10 / deblock=1:-2:-2 / analyse=0x3:0x133 / me=umh / subme=11 / psy=1 / psy_rd=1.05:0.00 / mixed_ref=1 / me_range=32 / chroma_me=1 / trellis=2 / 8x8dct=1 / cqm=0 / deadzone=21,11 / fast_pskip=0 / chroma_qp_offset=-2 / threads=9 / lookahead_threads=2 / sliced_threads=0 / nr=0 / decimate=1 / interlaced=0 / bluray_compat=0 / constrained_intra=0 / bframes=11 / b_pyramid=2 / b_adapt=2 / b_bias=0 / direct=3 / weightb=1 / open_gop=0 / weightp=2 / keyint=250 / keyint_min=23 / scenecut=40 / intra_refresh=0 / rc_lookahead=150 / rc=2pass / mbtree=1 / bitrate=2820 / ratetol=1.0 / qcomp=0.70 / qpmin=0 / qpmax=69 / qpstep=4 / cplxblur=20.0 / qblur=0.5 / vbv_maxrate=20000 / vbv_bufsize=25000 / nal_hrd=none / ip_ratio=1.35 / aq=1:0.70
Язык : English
Default : Да
Forced : Нет

Аудио #1
Идентификатор : 2
Формат : AC-3
Формат/Информация : Audio Coding 3
Расширение режима : CM (complete main)
Параметр Endianness формата : Big
Идентификатор кодека : A_AC3
Продолжительность : 1 ч. 24 м.
Вид битрейта : Постоянный
Битрейт : 448 Кбит/сек
Каналы : 6 каналов
Расположение каналов : Front: L C R, Side: L R, LFE
Частота : 48,0 КГц
Битовая глубина : 16 бит
Метод сжатия : С потерями
Размер потока : 270 Мбайт (13%)
Заголовок : Dub | DD 5.1 @ 448 kbps
Язык : Russian
Default : Да
Forced : Да

Аудио #2
Идентификатор : 3
Формат : AC-3
Формат/Информация : Audio Coding 3
Расширение режима : CM (complete main)
Параметр Endianness формата : Big
Идентификатор кодека : A_AC3
Продолжительность : 1 ч. 24 м.
Вид битрейта : Постоянный
Битрейт : 448 Кбит/сек
Каналы : 6 каналов
Расположение каналов : Front: L C R, Side: L R, LFE
Частота : 48,0 КГц
Битовая глубина : 16 бит
Метод сжатия : С потерями
Размер потока : 270 Мбайт (13%)
Заголовок : Original | DD 5.1 @ 448 kbps
Язык : English
Default : Нет
Forced : Нет

Текст #1
Идентификатор : 4
Формат : UTF-8
Идентификатор кодека : S_TEXT/UTF8
Идентификатор кодека/Информация : UTF-8 Plain Text
Язык : Russian
Default : Нет
Forced : Нет

Текст #2
Идентификатор : 5
Формат : UTF-8
Идентификатор кодека : S_TEXT/UTF8
Идентификатор кодека/Информация : UTF-8 Plain Text
Заголовок : Киномания
Язык : Russian
Default : Нет
Forced : Нет

Текст #3
Идентификатор : 6
Формат : UTF-8
Идентификатор кодека : S_TEXT/UTF8
Идентификатор кодека/Информация : UTF-8 Plain Text
Язык : English
Default : Нет
Forced : Нет

Текст #4
Идентификатор : 7
Формат : UTF-8
Идентификатор кодека : S_TEXT/UTF8
Идентификатор кодека/Информация : UTF-8 Plain Text
Заголовок : SDH
Язык : English
Default : Нет
Forced : Нет

Меню
00:00:00.000 : en:00:00:00.000
00:05:21.905 : en:00:05:21.905
00:13:10.832 : en:00:13:10.832
00:20:52.293 : en:00:20:52.293
00:30:39.713 : en:00:30:39.713
00:40:33.598 : en:00:40:33.598
00:48:47.174 : en:00:48:47.174
00:54:58.712 : en:00:54:58.712
01:00:57.904 : en:01:00:57.904
01:11:00.423 : en:01:11:00.423
01:18:41.508 : en:01:18:41.508
x264 [info]: frame I:999 Avg QP:17.04 size: 71633
x264 [info]: frame P:27993 Avg QP:20.00 size: 23511
x264 [info]: frame B:92159 Avg QP:21.77 size: 11399
x264 [info]: consecutive B-frames: 3.1% 5.2% 9.5% 15.6% 15.5% 40.4% 5.0% 1.4% 1.3% 1.2% 0.9% 0.8%
x264 [info]: mb I I16..4: 10.1% 72.0% 17.9%
x264 [info]: mb P I16..4: 1.3% 9.6% 1.4% P16..4: 29.2% 33.9% 12.5% 1.9% 0.2% skip:10.1%
x264 [info]: mb B I16..4: 0.1% 2.3% 0.2% B16..8: 38.2% 20.0% 3.9% direct: 5.7% skip:29.6% L0:45.0% L1:45.7% BI: 9.3%
x264 [info]: 8x8 transform intra:80.7% inter:63.3%
x264 [info]: direct mvs spatial:97.2% temporal:2.8%
x264 [info]: coded y,uvDC,uvAC intra: 85.8% 71.3% 37.7% inter: 32.5% 18.0% 1.8%
x264 [info]: i16 v,h,dc,p: 45% 16% 8% 31%
x264 [info]: i8 v,h,dc,ddl,ddr,vr,hd,vl,hu: 9% 7% 8% 11% 15% 14% 14% 11% 12%
x264 [info]: i4 v,h,dc,ddl,ddr,vr,hd,vl,hu: 11% 9% 7% 9% 15% 14% 13% 10% 12%
x264 [info]: i8c dc,h,v,p: 32% 31% 18% 18%
x264 [info]: Weighted P-Frames: Y:3.7% UV:1.6%
x264 [info]: ref P L0: 46.1% 10.3% 17.2% 7.1% 5.7% 4.1% 3.5% 2.0% 1.9% 1.7% 0.4% 0.0%
x264 [info]: ref B L0: 69.1% 13.0% 6.8% 3.6% 2.7% 2.1% 1.7% 0.7% 0.3%
x264 [info]: ref B L1: 90.9% 9.1%
x264 [info]: kb/s:2818.52

x264 [total]: encoded 121151 frames, 7.15 fps, 2818.52 kb/s

TIME
------------------------------
Общее время кодирования: 5 hour 49 min 37 sec
Файл получился на: 1698.66 mb



Скачать Попутчик.The.Hitcher.((Дэйв.Мейерс).[2007.боевик.триллер.криминал.BDRip-AVC].[Dub]+[Eng].torrent без регистрации
Золото ЗОЛОТАЯ РАЗДАЧА! СКАЧАННОЕ НЕ ЗАСЧИТЫВАЕТСЯ! Золото
Дата: Зарегистрирован   [ Тип: внутренний ] Как тут cкачать?
MAGNET ссылка
MAGNET ссылка


Скачать .torrent

12 KB

Статус: проверено DHT
Скачан: торрент - 113 раз, раздача полностью - 204 раз
Размер: 2,19 GB
Оценка:  - (Голосов: 0)
Поблагодарили: 1
Поделиться ссылкой на эту раздачу с друзьями:
В контактеFacebookОдноклассникиTwitterLivejournalМой МирLiveinternet
 

 
Показать сообщения:    


Вы не можете начинать темы
Вы не можете отвечать на сообщения
Вы не можете редактировать свои сообщения
Вы не можете удалять свои сообщения
Вы не можете голосовать в опросах
Вы не можете прикреплять файлы к сообщениям
Вы можете скачивать файлы