Loading...
Error

Скачать Слепое правосудие / Blind Justice (Ричард Спенс) [1994, боевик, вестерн, DVDRip] [DVO] торрент без регистрации

 
Статистика раздачи
Размер:  1,46 GB   |    Скачан:  131 раз
Сидов:  1  [  0 KB/s  ]  
 
Автор Сообщение

Marsianka

[] 

Информация о фильме
Название: Слепое правосудие
Оригинальное название: Blind Justice
Год выхода: 1994
Жанр: боевик, вестерн
Режиссер: Ричард Спенс / Richard Spence
В ролях: Арманд Ассанте / Armand Assante, Элизабет Шу / Elisabeth Shue, Роберт Дави / Robert Davi, Адам Болдуин / Adam Baldwin, Йен МакЭлхинни / Ian McElhinney, Дэнни Нуччи / Danny Nucci, М. К. Гейни / M.C. Gainey, Титус Уэлливер / Titus Welliver, Джек Блэк / Jack Black, Майкл ОНил / Michael O'Neill, Дуглас Робертс / Douglas Roberts, Гэри Сервантес / Gary Cervantes, Джесси Дэбсон / Jesse Dabson, Стэнтон Дэвис / Stanton Davis, Джимми Херман / Jimmy Herman, Клэйтон Ланди / Clayton Landey

О фильме:
Погруженный в свой собственный Ад, ослепший во время войны стрелок Кэнан, скитаясь по Южным Территориям, сталкивается с бандой Алакрана и сержантом армии США Хастингом, вступившими в смертельную схватку за груз серебра. Слепец, не принимаемый в расчет ни той, ни другой стороной, железной рукой вершит Правосудие..



Страна: США
Продолжительность: 01:28:01
Перевод: Профессиональный (двухголосый закадровый) НТВ+

Файл
Кодек: Xvid
Качество: DVDRip
Видео: 720x544, 23,976 fps, 2164 kbps
Аудио: AC3, 2 ch, 192 Kbps
Общее
Полное имя : Blind_Justice_1994_DVDRip.avi
Формат : AVI
Формат/Информация : Audio Video Interleave
Размер файла : 1,46 Гбайт
Продолжительность : 1 ч. 28 м.
Общий поток : 2365 Кбит/сек
Программа кодирования : VirtualDubMod 1.5.10.3 | www.virtualdub-fr.org || (build 2550/release)
Библиотека кодирования : VirtualDubMod build 2550/release

Видео
Идентификатор : 0
Формат : MPEG-4 Visual
Профиль формата : Advanced Simple@L5
Параметр BVOP формата : 1
Параметр QPel формата : Нет
Параметр GMC формата : Без точки перехода
Параметр матрицы формата : Выборочная
Идентификатор кодека : XVID
Идентификатор кодека/Подсказка : XviD
Продолжительность : 1 ч. 28 м.
Битрейт : 2164 Кбит/сек
Ширина : 720 пикс.
Высота : 544 пикс.
Соотношение сторон : 4:3
Частота кадров : 23,976 кадр/сек
Цветовое пространство : YUV
Подвыборка цветности : 4:2:0
Битовая глубина : 8 бит
Тип развёртки : Прогрессивная
Метод сжатия : С потерями
Бит/(Пиксели*Кадры) : 0.230
Размер потока : 1,33 Гбайт (91%)
Библиотека кодирования : XviD 73

Аудио
Идентификатор : 1
Формат : AC-3
Формат/Информация : Audio Coding 3
Расширение режима : CM (complete main)
Идентификатор кодека : 2000
Продолжительность : 1 ч. 28 м.
Вид битрейта : Постоянный
Битрейт : 192 Кбит/сек
Канал(ы) : 2 канала(ов)
Расположение каналов : Front: L R
Частота : 48,0 КГц
Битовая глубина : 16 бит
Метод сжатия : С потерями
Размер потока : 121 Мбайт (8%)
Выравнивание : Разделение по промежуткам
Продолжительность промежутка : 42 мс. (1,00 видеокадр)
Время предзагрузки промежутка : 500 ms
Релиз от: Leon-masl



Скачать Слепое.правосудие.Blind.Justice.(Ричард.Спенс).[1994.боевик.вестерн.DVDRip].[DVO].torrent без регистрации
Золото ЗОЛОТАЯ РАЗДАЧА! СКАЧАННОЕ НЕ ЗАСЧИТЫВАЕТСЯ! Золото
Дата: Зарегистрирован   [ Тип: внутренний ] Как тут cкачать?
MAGNET ссылка
MAGNET ссылка


Скачать .torrent

15 KB

Статус: проверено DHT
Скачан: торрент - 131 раз, раздача полностью - 46 раз
Размер: 1,46 GB
Оценка:  - (Голосов: 0)
Поблагодарили: 3
Поделиться ссылкой на эту раздачу с друзьями:
В контактеFacebookОдноклассникиTwitterLivejournalМой МирLiveinternet
 

 
Показать сообщения:    


Вы не можете начинать темы
Вы не можете отвечать на сообщения
Вы не можете редактировать свои сообщения
Вы не можете удалять свои сообщения
Вы не можете голосовать в опросах
Вы не можете прикреплять файлы к сообщениям
Вы можете скачивать файлы