Loading...
Error

Скачать Воскрешение из ада / Реинкарнация самурая / Samurai Reincarnation / Makai tensho (Киндзи Фукасаку) [1981 г., ужасы, фэнтези, боевик, DVDRip-AVC] [AVO] (Кузнецов) торрент без регистрации

 
Статистика раздачи
Размер:  2,18 GB   |    Скачан:  110 раз
Сидов:  1  [  0 KB/s  ]  
 
Автор Сообщение

durik

[] 

Воскрешение из ада / Реинкарнация самурая / Samurai Reincarnation / Makai tensho

Название: Воскрешение из ада / Реинкарнация самурая
Оригинальное название: Samurai Reincarnation / Makai tensho
Год выхода: 1981
Жанр: ужасы, фэнтези, боевик
Режиссер: Киндзи Фукасаку
В ролях: Сонни Чиба, Кэндзи Савада, Акико Кана, Кен Огата, Хироюки Санада, Юко Асука, Сэйдзо Фукумото, Дзюн Хамамура, Хироси Инудзука, Масатака Ивао

О фильме:
Чудом выжив после кровавой расправы, которую японцы учинили над христианами, самурай Широ отрекается от бога и присягает на верность сатане, который награждает его даром воскрешать мёртвых. Он поднимает из могил неупокоенных и наделяет их темной силой, чтобы они помогли ему отомстить сегуну и его приспешникам.



Страна: Япония
Студия: Kadokawa Haruki Jimusho, Toei Company
Продолжительность: 02:01:44
Перевод: Авторский (одноголосый закадровый) [Александр Кузнецов]

Кодек: AVC / MKV
Качество: DVDRip-AVC
Видео: 704x368, 2175 kbps, 23,976 fps, 0,350 Bits/(Pixel*Frame)
Звук:
AC3, 48 kHz, 192 kbps, 2 ch - русский
AC3, 48 kHz, 192 kbps, 2 ch - японский
Субтитры: Нет

Релиз от: и

Автор рипа: Bathory

General
Unique ID : 192741584591012235028419287252446552257 (0x9100ADCE4EA2B35DA5B451E5ACBD20C1)
Complete name : H:Samurai.Reincarnation.1981.DVDRip.mkv
Format : Matroska
Format version : Version 2
File size : 2.18 GiB
Duration : 2h 1mn
Overall bit rate : 2 561 Kbps
Encoded date : UTC 2013-08-11 17:36:26
Writing application : mkvmerge v6.3.0 ('You can't stop me!') built on Jun 28 2013 20:09:41
Writing library : libebml v1.3.0 + libmatroska v1.4.0

Video
ID : 1
Format : AVC
Format/Info : Advanced Video Codec
Format profile : High@L4.1
Format settings, CABAC : Yes
Format settings, ReFrames : 11 frames
Codec ID : V_MPEG4/ISO/AVC
Duration : 2h 1mn
Bit rate : 2 175 Kbps
Width : 704 pixels
Height : 368 pixels
Display aspect ratio : 1.913
Frame rate mode : Constant
Frame rate : 23.976 fps
Color space : YUV
Chroma subsampling : 4:2:0
Bit depth : 8 bits
Scan type : Progressive
Bits/(Pixel*Frame) : 0.350
Stream size : 1.81 GiB (83%)
Writing library : x264 core 135 r2345 f0c1c53
Encoding settings : cabac=1 / ref=11 / deblock=1:-2:-2 / analyse=0x3:0x133 / me=umh / subme=11 / psy=1 / psy_rd=1.15:0.20 / mixed_ref=1 / me_range=32 / chroma_me=1 / trellis=2 / 8x8dct=1 / cqm=0 / deadzone=21,11 / fast_pskip=1 / chroma_qp_offset=-3 / threads=6 / lookahead_threads=1 / sliced_threads=0 / nr=20 / decimate=1 / interlaced=0 / bluray_compat=0 / constrained_intra=0 / bframes=10 / b_pyramid=2 / b_adapt=2 / b_bias=0 / direct=3 / weightb=1 / open_gop=0 / weightp=2 / keyint=240 / keyint_min=23 / scenecut=40 / intra_refresh=0 / rc_lookahead=65 / rc=2pass / mbtree=1 / bitrate=2175 / ratetol=1.0 / qcomp=0.60 / qpmin=0 / qpmax=69 / qpstep=4 / cplxblur=20.0 / qblur=0.5 / vbv_maxrate=62500 / vbv_bufsize=78125 / nal_hrd=none / ip_ratio=1.40 / aq=1:1.00
Default : Yes
Forced : No

Audio #1
ID : 2
Format : AC-3
Format/Info : Audio Coding 3
Mode extension : CM (complete main)
Format settings, Endianness : Big
Codec ID : A_AC3
Duration : 2h 1mn
Bit rate mode : Constant
Bit rate : 192 Kbps
Channel(s) : 2 channels
Channel positions : Front: L R
Sampling rate : 48.0 KHz
Bit depth : 16 bits
Compression mode : Lossy
Stream size : 167 MiB (7%)
Default : Yes
Forced : No

Audio #2
ID : 3
Format : AC-3
Format/Info : Audio Coding 3
Mode extension : CM (complete main)
Format settings, Endianness : Big
Codec ID : A_AC3
Duration : 2h 1mn
Bit rate mode : Constant
Bit rate : 192 Kbps
Channel(s) : 2 channels
Channel positions : Front: L R
Sampling rate : 48.0 KHz
Bit depth : 16 bits
Compression mode : Lossy
Stream size : 167 MiB (7%)
Default : No
Forced : No



Скачать Воскрешение.из.ада.Реинкарнация.самурая.Samurai.Reincarnation.Makai.tensho.(Киндзи.Фукасаку).[1981.г.ужасы.фэнтези.боевик.DVDRip-AVC].[AVO].(Кузнецов).torrent без регистрации
Золото ЗОЛОТАЯ РАЗДАЧА! СКАЧАННОЕ НЕ ЗАСЧИТЫВАЕТСЯ! Золото
Дата: Зарегистрирован   [ Тип: внутренний ] Как тут cкачать?
MAGNET ссылка
MAGNET ссылка


Скачать .torrent

11 KB

Статус: проверено DHT
Скачан: торрент - 110 раз, раздача полностью - 11 раз
Размер: 2,18 GB
Оценка:  - (Голосов: 0)
Поблагодарили: 3
Поделиться ссылкой на эту раздачу с друзьями:
В контактеFacebookОдноклассникиTwitterLivejournalМой МирLiveinternet
 

 
Показать сообщения:    


Вы не можете начинать темы
Вы не можете отвечать на сообщения
Вы не можете редактировать свои сообщения
Вы не можете удалять свои сообщения
Вы не можете голосовать в опросах
Вы не можете прикреплять файлы к сообщениям
Вы можете скачивать файлы