Loading...
Error

Скачать Байки из склепа / Tales from the Crypt (сезоны 01-02) (Роберт Земекис) [1989-1990, ужасы, фэнтези, триллер, комедия, криминал, DVDRip] [AVO (А. Карповский)] торрент без регистрации

 
Статистика раздачи
Размер:  7,67 GB   |    Скачан:  138 раз
Сидов:  1  [  0 KB/s  ]  
 
Автор Сообщение

МихаНЕзатор

[] 

Информация о фильме
Название: Байки из склепа
Оригинальное название: Tales from the Crypt
Год выхода: 1989-1990
Жанр: ужасы, фэнтези, триллер, комедия, криминал,
Режиссер: Роберт Земекис / Robert Zemeckis
В ролях: Уильям Сэдлер, Маршалл Белл, Джо Пантольяно, Лиа Томпсон, Бретт Каллен, Аманда Пламмер, Стивен Шеллен, М. Эммет Уолш, Деми Мур, Мигель Феррер, Игги Поп, Патриция Аркетт, Грейс Забриски

О фильме:
«Байки из склепа» телесериал, созданный по мотивам комиксов Уильяма М. Гейнса, составленный из более чем полусотни сюжетов, представляющих собой короткие страшно юморные истории, рассказанные от лица симпатичного обитателя склепа, сопровождаемые его едкими, зловонными комментариями. Помните смех продлевает жизнь, а постоянный страх сделает вас бессмертным.



Страна: США
Студия: Home Box Office (HBO)
Продолжительность: 24 x ~ 00:26:00
Перевод: Авторский (одноголосый, закадровый) Антон Карповский

Файл
Кодек: XVid
Качество: DVDRip
Видео: 704x528 (1.33:1), 23.976 fps, XviD build 64, 1361 kbps avg, 0.15 bit/pixel
Звук: 48 kHz, AC3 Dolby Digital, 2/0 (L,R) Surround Encoded ch, 192 kbps - Карповский
Субтитры: Нет

Релиз: UnSlayeR
Media Info
General
Complete name : G:DownloadsБайки от Карповского (1-й сезон)1.04. Байки из склепа (Карповский).avi
Format : AVI
Format/Info : Audio Video Interleave
File size : 305 MiB
Duration : 27mn 17s
Overall bit rate : 1 563 Kbps
Writing application : VirtualDubMod 1.5.10.2 (build 2540/release)
Writing library : VirtualDubMod build 2540/release

Video
ID : 0
Format : MPEG-4 Visual
Format profile : Advanced Simple@L5
Format settings, BVOP : 2
Format settings, QPel : No
Format settings, GMC : No warppoints
Format settings, Matrix : Default (MPEG)
Codec ID : XVID
Codec ID/Hint : XviD
Duration : 27mn 17s
Bit rate : 1 361 Kbps
Width : 704 pixels
Height : 528 pixels
Display aspect ratio : 4:3
Frame rate : 23.976 fps
Color space : YUV
Chroma subsampling : 4:2:0
Bit depth : 8 bits
Scan type : Progressive
Compression mode : Lossy
Bits/(Pixel*Frame) : 0.153
Stream size : 266 MiB (87%)
Writing library : XviD 64

Audio
ID : 1
Format : AC-3
Format/Info : Audio Coding 3
Format profile : Dolby Digital
Mode extension : CM (complete main)
Format settings, Endianness : Big
Codec ID : 2000
Duration : 27mn 17s
Bit rate mode : Constant
Bit rate : 192 Kbps
Channel(s) : 2 channels
Channel positions : Front: L R
Sampling rate : 48.0 KHz
Bit depth : 16 bits
Compression mode : Lossy
Delay relative to video : 29ms
Stream size : 37.5 MiB (12%)
Alignment : Split accross interleaves
Interleave, duration : 42 ms (1.00 video frame)
Interleave, preload duration : 500 ms



Скачать Байки.из.склепа.Tales.from.the.Crypt.(сезоны.01-02).(Роберт.Земекис).[1989-1990.ужасы.фэнтези.триллер.комедия.криминал.DVDRip].[AVO.(А.Карповский)].torrent без регистрации
Золото ЗОЛОТАЯ РАЗДАЧА! СКАЧАННОЕ НЕ ЗАСЧИТЫВАЕТСЯ! Золото
Дата: Зарегистрирован   [ Тип: внутренний ] Как тут cкачать?
MAGNET ссылка
MAGNET ссылка


Скачать .torrent

24 KB

Статус: проверено DHT
Скачан: торрент - 138 раз, раздача полностью - 35 раз
Размер: 7,67 GB
Оценка:  - (Голосов: 0)
Поблагодарили: 2
Поделиться ссылкой на эту раздачу с друзьями:
В контактеFacebookОдноклассникиTwitterLivejournalМой МирLiveinternet
 

 
Показать сообщения:    


Вы не можете начинать темы
Вы не можете отвечать на сообщения
Вы не можете редактировать свои сообщения
Вы не можете удалять свои сообщения
Вы не можете голосовать в опросах
Вы не можете прикреплять файлы к сообщениям
Вы можете скачивать файлы