Loading...
Error

Скачать Серпико / Serpico (Сидни Люмет) [1973, драма, криминал, HDRip] [MVO] торрент без регистрации

 
Статистика раздачи
Размер:  745 MB   |    Скачан:  119 раз
Сидов:  1  [  0 KB/s  ]  
 
Автор Сообщение

Marsianka

[] 

Серпико/Serpico

Страна: США, Италия
Жанр: драма, криминал
Год выпуска: 1973
Продолжительность: 02:10:01

Перевод: Профессиональный (многоголосый закадровый)
Cубтитры: нет
Режиссер: Сидни Люмет / Sidney Lumet

В ролях: Аль Пачино, Джон Рэндолф, Джек Кихоу, Бифф МакГуайр, Барбара Ида-Янг, Корнелия Шарп....

Описание: В 1967-м нью-йоркский полицейский Фрэнк Серпико (Аль Пачино) подал непосредственному начальнику первый рапорт, где сообщалось о превышении полномочий, получении взяток и иных преступлениях, систематически совершаемых рядовыми сотрудниками правоохранительных органов под покровительством руководителей разных уровней. Позже, после неудачных попыток Серпико довести дело до суда, улики были переданы Дэвиду Бернхайму, журналисту газеты «Нью-Йорк трибьюн», привлекли внимание мэра и в итоге послужили основой для формирования специального подразделения для проведения внутренних расследований, известного как Комиссия Нэпа (по имени её главы).



Качество видео: HDRip
Формат видео: AVI

Видео: XviD, 624x336, 23.976 fps, 679 kbps, 0.14 bit/pixel
Аудио: MPEG Audio Layer 3, 2 ch, 112.00 kbps, 44.1 kHz


General
Complete name : D:Docume and SettingsAdminМои документыDownloadsSerpico.1973.HDRip.avi
Format : AVI
Format/Info : Audio Video Interleave
File size : 745 MiB
Duration : 2h 10mn
Overall bit rate : 801 Kbps
Writing application : VirtualDubMod 1.5.10.2 (build 2540/release)
Writing library : VirtualDubMod build 2540/release

Video
ID : 0
Format : MPEG-4 Visual
Format profile : Advanced Simple@L5
Format settings, BVOP : 1
Format settings, QPel : No
Format settings, GMC : No warppoints
Format settings, Matrix : Default (MPEG)
Codec ID : XVID
Codec ID/Hint : XviD
Duration : 2h 10mn
Bit rate : 679 Kbps
Width : 624 pixels
Height : 336 pixels
Display aspect ratio : 1.85:1
Frame rate : 23.976 fps
Color space : YUV
Chroma subsampling : 4:2:0
Bit depth : 8 bits
Scan type : Progressive
Compression mode : Lossy
Bits/(Pixel*Frame) : 0.135
Stream size : 632 MiB (85%)
Writing library : XviD 1.2.0.dev47 (UTC 2006-11-01)

Audio
ID : 1
Format : MPEG Audio
Format version : Version 1
Format profile : Layer 3
Codec ID : 55
Codec ID/Hint : MP3
Duration : 2h 10mn
Bit rate mode : Constant
Bit rate : 112 Kbps
Channel(s) : 2 channels
Sampling rate : 44.1 KHz
Compression mode : Lossy
Stream size : 104 MiB (14%)
Alignment : Split accross interleaves
Interleave, duration : 42 ms (1.00 video frame)
Interleave, preload duration : 500 ms
Writing library : LAME3.97
Encoding settings : -m s -V 4 -q 2 -lowpass 15.6 -b 112



Скачать Серпико.Serpico.(Сидни.Люмет).[1973.драма.криминал.HDRip].[MVO].torrent без регистрации
Золото ЗОЛОТАЯ РАЗДАЧА! СКАЧАННОЕ НЕ ЗАСЧИТЫВАЕТСЯ! Золото
Дата: Зарегистрирован   [ Тип: внутренний ] Как тут cкачать?
MAGNET ссылка
MAGNET ссылка


Скачать .torrent

15 KB

Статус: проверено DHT
Скачан: торрент - 119 раз, раздача полностью - 2 раз
Размер: 745 MB
Оценка:  - (Голосов: 0)
Поблагодарили: 1
Поделиться ссылкой на эту раздачу с друзьями:
В контактеFacebookОдноклассникиTwitterLivejournalМой МирLiveinternet
 

 
Показать сообщения:    


Вы не можете начинать темы
Вы не можете отвечать на сообщения
Вы не можете редактировать свои сообщения
Вы не можете удалять свои сообщения
Вы не можете голосовать в опросах
Вы не можете прикреплять файлы к сообщениям
Вы можете скачивать файлы