Loading...
Error

Скачать Низкое зимнее солнце / Low winter sun (сезон 01) (Эрнест Р. Дикерсон) [2013, драма, WEB-DLRip] [MVO (NewStudio)] торрент без регистрации

 
Статистика раздачи
Размер:  5,37 GB   |    Скачан:  156 раз
Сидов:  1  [  0 KB/s  ]  
 
Автор Сообщение

МихаНЕзатор

[] 

Название: Низкое зимнее солнце
Оригинальное название: Low winter sun
Год выпуска: 2013
Жанр: драма
Выпущено: США, AMC Studios, Endemol Entertainment, Tiger Aspect Productions
Режиссер: Эрнест Р. Дикерсон
В ролях: Марк Стронг, Ленни Джеймс, Дэвид Костабайл, Джеймс Рэнсон, Спрэг Грэйден, Афина Карканис, Хизер Фэйрбэнкс, Пенни Мари Хоукинс, Джозеф Катрейн, Билли Лаш, Джеймс Уорд, Кимберли Дж. Браун

О фильме: История убийства, обмана, мести и коррупции в мире, где грань между полицейскими и преступниками размыта. Сериал начинается с убийства полицейского его другом, детективом из Детройта. Это убийство повлечет за собой события, которые навсегда изменят жизнь детектива



Страна: США, Showtime
Продолжительность: 01 x ~ 00:45:00
Перевод: Профессиональный (многоголосый, закадровый) - NewStudio
Субтитры: нет

Перевод: Weirdie
Постер: Андрей Шапал

Качество: WEB-DLRip
Формат: AVI
Видео: XviD, ~ 1500 Кбит/с, 720x400
Аудио rus: MP3, 2 ch, 128 Кбит
Аудио eng: MP3, 2 ch, 128 Кбит

Релиз от:

15.10.2013 г. торент обновлён, добавлена 9-10 серия!

Эпизод 1
Пилот 11 августа 2013
Эпизод 2
The Goat Rodeo 18 августа 2013
Эпизод 3
No Rounds 25 августа 2013
Эпизод 4
Catacombs 1 сентября 2013
Эпизод 5
Cake on the Way 8 сентября 2013
Эпизод 6
The Way Things Are 15 сентября 2013
Эпизод 7
Эпизод #1.7 22 сентября 2013
Эпизод 8
Revelations 29 сентября 2013
Эпизод 9
Эпизод #1.9 6 октября 2013
Эпизод 10
Ann Arbor
Общее
Полное имя : D:Dian KehtNewStudioLow.Winter.Sun.s01e01.WEBDLRip.NewStudio.TV.avi
Формат : AVI
Формат/Информация : Audio Video Interleave
Размер файла : 550 Мбайт
Продолжительность : 43 м.
Общий поток : 1779 Кбит/сек
Программа кодирования : VirtualDubMod 1.5.10.2 (build 2540/release)
Библиотека кодирования : VirtualDubMod build 2540/release

Видео
Идентификатор : 0
Формат : MPEG-4 Visual
Профиль формата : Advanced Simple@L5
Параметр BVOP формата : 2
Параметр QPel формата : Нет
Параметр GMC формата : Без точки перехода
Параметр матрицы формата : Default (MPEG)
Идентификатор кодека : XVID
Идентификатор кодека/Подсказка : XviD
Продолжительность : 43 м.
Битрейт : 1510 Кбит/сек
Ширина : 720 пикс.
Высота : 400 пикс.
Соотношение сторон : 16:9
Частота кадров : 23,976 кадр/сек
Цветовое пространство : YUV
Подвыборка цветности : 4:2:0
Битовая глубина : 8 бит
Тип развёртки : Прогрессивная
Метод сжатия : С потерями
Бит/(Пиксели*Кадры) : 0.219
Размер потока : 467 Мбайт (85%)
Библиотека кодирования : XviD 64

Аудио #1
Идентификатор : 1
Формат : MPEG Audio
Версия формата : Version 1
Профиль формата : Layer 3
Режим : Joint stereo
Идентификатор кодека : 55
Идентификатор кодека/Подсказка : MP3
Продолжительность : 43 м.
Вид битрейта : Постоянный
Битрейт : 128 Кбит/сек
Каналы : 2 канала
Частота : 48,0 КГц
Метод сжатия : С потерями
Размер потока : 39,6 Мбайт (7%)
Выравнивание : Соединение по промежуткам
Продолжительность промежутка : 42 мс. (1,00 видеокадр)
Время предзагрузки промежутка : 504 ms

Аудио #2
Идентификатор : 2
Формат : MPEG Audio
Версия формата : Version 1
Профиль формата : Layer 3
Режим : Joint stereo
Расширение режима : MS Stereo
Идентификатор кодека : 55
Идентификатор кодека/Подсказка : MP3
Продолжительность : 43 м.
Вид битрейта : Постоянный
Битрейт : 128 Кбит/сек
Каналы : 2 канала
Частота : 48,0 КГц
Метод сжатия : С потерями
Размер потока : 39,6 Мбайт (7%)
Выравнивание : Соединение по промежуткам
Продолжительность промежутка : 42 мс. (1,00 видеокадр)
Время предзагрузки промежутка : 504 ms



Скачать Низкое.зимнее.солнце.Low.winter.sun.(сезон.01).(Эрнест.Р.Дикерсон).[2013.драма.WEB-DLRip].[MVO.(NewStudio)].torrent без регистрации
Золото ЗОЛОТАЯ РАЗДАЧА! СКАЧАННОЕ НЕ ЗАСЧИТЫВАЕТСЯ! Золото
Дата: Зарегистрирован   [ Тип: внутренний ] Как тут cкачать?
MAGNET ссылка
MAGNET ссылка


Скачать .torrent

15 KB

Статус: проверено DHT
Скачан: торрент - 156 раз, раздача полностью - 27 раз
Размер: 5,37 GB
Оценка:  5 (Голосов: 1)
Поблагодарили: 5
Поделиться ссылкой на эту раздачу с друзьями:
В контактеFacebookОдноклассникиTwitterLivejournalМой МирLiveinternet
 

 

МихаНЕзатор

[] 

Раздача обновлена.
 
Показать сообщения:    


Вы не можете начинать темы
Вы не можете отвечать на сообщения
Вы не можете редактировать свои сообщения
Вы не можете удалять свои сообщения
Вы не можете голосовать в опросах
Вы не можете прикреплять файлы к сообщениям
Вы можете скачивать файлы