Loading...
Error

Скачать Детские игры / Childs Play (Том Холланд) [1988, ужасы, триллер, детектив, BDRip] [DVO]+[AVO]x2+[Оригинал]+[Sub] торрент без регистрации

 
Статистика раздачи
Размер:  1,95 GB   |    Скачан:  138 раз

Полного источника не было: 24 минуты

 
Автор Сообщение

Marsianka

[] 

Название: Детские игры
Оригинальное название: Child's Play
Год выпуска: 1988
Жанр: ужасы, триллер, детектив
Выпущено: США, United Artists
Режиссер: Том Холланд
В ролях: Кэтрин Хикс, Крис Сарандон, Алекс Винсент, Брэд Дуриф, Дайна Мэнофф, Томми Свердлоу, Джек Колвин, Нил Джунтоли, Хуан Рамирес, Алан Уайлдер

О фильме: Никто не поверил шестилетнему Энди Барклаю, когда он сказал, что его новая кукла по имени Чаки живая. А когда няня мальчика погибла, выпав из окна, он сказал своей матери и следователю чистую правду: «Это сделал Чаки». Когда душа убийцы вселяется в невинно выглядящую куклу, никто, кроме маленького Энди, не осознаёт, что Чаки виновен в захлестнувшей город волне страшных убийств. Но настоящий ужас наступает тогда, когда дух злодея вознамеривается переселиться из куклы в живого человека.



Качество: BDRip
Размер: 1.95 ГБ
Продолжительность: 01:27:08

Видео: XviD, 1898 Кбит/с, 720x384
Аудио 1: русский, 48 kHz, AC3, 2 ch, 192 kbps avg, Tycoon [Профессиональный двухголосый]
Аудио 2: русский, 48 kHz, AC3, 2 ch, 192 kbps avg, Василий Горчаков [Авторский]
Аудио 3: русский, 48 kHz, AC3, 6 ch, 448 kbps avg, Юрий Живов [Авторский]

Внешние файлы
Аудио: английский, 48 kHz, AC3, 6 ch, 448 kbps avg, [Оригинал]
Субтитры: русские
Субтитры: английские (для слабослышащих)
Сатурн, 1990 год
Победитель (1):
Лучшая актриса (Кэтрин Хикс)

Номинации (3):
Лучший фильм ужасов
Лучший молодой актер/актриса (Алекс Винсент)
Лучший сценарий
Общее
Полное имя : E:VideoDetskie.igry.1988.XviD.BDRipDetskie.igry.1988.eng.SDH.srt
Размер файла : 125 Кбайт

Общее
Полное имя : E:VideoDetskie.igry.1988.XviD.BDRipDetskie.igry.1988.original.eng.ac3
Формат : AC-3
Формат/Информация : Audio Coding 3
Размер файла : 279 Мбайт
Продолжительность : 1 ч. 27 м.
Режим общего битрейта : Постоянный
Общий поток : 448 Кбит/сек

Аудио
Формат : AC-3
Формат/Информация : Audio Coding 3
Расширение режима : CM (complete main)
Параметр Endianness формата : Big
Продолжительность : 1 ч. 27 м.
Вид битрейта : Постоянный
Битрейт : 448 Кбит/сек
Каналы : 6 каналов
Расположение каналов : Front: L C R, Side: L R, LFE
Частота : 48,0 КГц
Битовая глубина : 16 бит
Метод сжатия : С потерями
Размер потока : 279 Мбайт (100%)

Общее
Полное имя : E:VideoDetskie.igry.1988.XviD.BDRipDetskie.igry.1988.rus.srt
Размер файла : 87,0 Кбайт

Общее
Полное имя : E:VideoDetskie.igry.1988.XviD.BDRipDetskie.igry.1988.XviD.BDRip.avi
Формат : AVI
Формат/Информация : Audio Video Interleave
Размер файла : 1,67 Гбайт
Продолжительность : 1 ч. 27 м.
Общий поток : 2749 Кбит/сек
Программа кодирования : VirtualDubMod 1.5.10.2 (build 2540/release)
Библиотека кодирования : VirtualDubMod build 2540/release

Видео
Идентификатор : 0
Формат : MPEG-4 Visual
Профиль формата : Advanced Simple@L5
Параметр BVOP формата : 1
Параметр QPel формата : Нет
Параметр GMC формата : Без точки перехода
Параметр матрицы формата : Default (H.263)
Режим смешивания : Сжатый битовый поток
Идентификатор кодека : XVID
Идентификатор кодека/Подсказка : XviD
Продолжительность : 1 ч. 27 м.
Битрейт : 1898 Кбит/сек
Ширина : 720 пикселей
Высота : 384 пикселя
Соотношение сторон : 1,85:1
Частота кадров : 23,976 кадра/сек
Цветовое пространство : YUV
Субдискретизация насыщенности : 4:2:0
Битовая глубина : 8 бит
Тип развёртки : Прогрессивная
Метод сжатия : С потерями
Бит/(Пиксели*Кадры) : 0.286
Размер потока : 1,16 Гбайт (69%)
Библиотека кодирования : XviD 1.2.1 (UTC 2008-12-04)

Аудио #1
Идентификатор : 1
Формат : AC-3
Формат/Информация : Audio Coding 3
Профиль формата : Dolby Digital
Расширение режима : CM (complete main)
Параметр Endianness формата : Big
Идентификатор кодека : 2000
Продолжительность : 1 ч. 27 м.
Вид битрейта : Постоянный
Битрейт : 192 Кбит/сек
Каналы : 2 канала
Расположение каналов : Front: L R
Частота : 48,0 КГц
Битовая глубина : 16 бит
Метод сжатия : С потерями
Размер потока : 120 Мбайт (7%)
Выравнивание : Разделение по промежуткам
Продолжительность промежутка : 42 мс. (1,00 видеокадр)
Время предзагрузки промежутка : 500 мс.

Аудио #2
Идентификатор : 2
Формат : AC-3
Формат/Информация : Audio Coding 3
Профиль формата : Dolby Digital
Расширение режима : CM (complete main)
Параметр Endianness формата : Big
Идентификатор кодека : 2000
Продолжительность : 1 ч. 27 м.
Вид битрейта : Постоянный
Битрейт : 192 Кбит/сек
Каналы : 2 канала
Расположение каналов : Front: L R
Частота : 48,0 КГц
Битовая глубина : 16 бит
Метод сжатия : С потерями
Размер потока : 120 Мбайт (7%)
Выравнивание : Разделение по промежуткам
Продолжительность промежутка : 42 мс. (1,00 видеокадр)
Время предзагрузки промежутка : 500 мс.

Аудио #3
Идентификатор : 3
Формат : AC-3
Формат/Информация : Audio Coding 3
Расширение режима : CM (complete main)
Параметр Endianness формата : Big
Идентификатор кодека : 2000
Продолжительность : 1 ч. 27 м.
Вид битрейта : Постоянный
Битрейт : 448 Кбит/сек
Каналы : 6 каналов
Расположение каналов : Front: L C R, Side: L R, LFE
Частота : 48,0 КГц
Битовая глубина : 16 бит
Метод сжатия : С потерями
Размер потока : 279 Мбайт (16%)
Выравнивание : Разделение по промежуткам
Продолжительность промежутка : 42 мс. (1,00 видеокадр)
Время предзагрузки промежутка : 500 мс.



Скачать Детские.игры.Childs.Play.(Том.Холланд).[1988.ужасы.триллер.детектив.BDRip].[DVO]+[AVO]x2+[Оригинал]+[Sub].torrent без регистрации
Золото ЗОЛОТАЯ РАЗДАЧА! СКАЧАННОЕ НЕ ЗАСЧИТЫВАЕТСЯ! Золото
Дата: Зарегистрирован   [ Тип: внутренний ] Как тут cкачать?
MAGNET ссылка
MAGNET ссылка


Скачать .torrent

20 KB

Статус: проверено DHT
Скачан: торрент - 138 раз, раздача полностью - 74 раз
Размер: 1,95 GB
Оценка:  - (Голосов: 0)
Поблагодарили: 1
Поделиться ссылкой на эту раздачу с друзьями:
В контактеFacebookОдноклассникиTwitterLivejournalМой МирLiveinternet
 

 
Показать сообщения:    


Вы не можете начинать темы
Вы не можете отвечать на сообщения
Вы не можете редактировать свои сообщения
Вы не можете удалять свои сообщения
Вы не можете голосовать в опросах
Вы не можете прикреплять файлы к сообщениям
Вы можете скачивать файлы