Loading...
Error

Скачать Цель №1 / Executive target (Джозеф Мерхи / Joseph Merhi) [1997, боевик, DVDRip] [AVO] (Юрий Сербин) торрент без регистрации

 
Статистика раздачи
Размер:  1,29 GB   |    Скачан:  115 раз

Полного источника не было: 21 минута

 
Автор Сообщение

leon030982

[] 

Цель №1 / Executive target


Год выпуска: 1997
Страна: США
Жанр: боевик
Продолжительность: 01:31:53
Перевод: Авторский (одноголосный, закадровый) [Юрий Сербин]
Cубтитры: нет

Режиссер: Джозеф Мерхи / Joseph Merhi

В ролях: Майкл Мэдсен, Энджи Эверхарт, Кит Дэвид, Рой Шайдер, Роберт Миано, Дэйтон Кэлли, Кэти Кристоферсон, Гарет Уильямс, Матиас Хьюз

Описание: Вы хотите знать, сколько стоит президент США? Ответ на этот интригующий вопрос даст Вам Ник Джеймс, который вынужден участвовать в захвате заложника N 1 Соединенных Штатов Америки. Попав в ловко расставленные сети преступников, Ник должен совершить ограбление банка...



Качество видео: DVDRip
Формат видео: AVI
Видео кодек: XviD
Аудио кодек: AC3
Видео: 704x512 (1.38:1), 25 fps, XviD MPEG-4 ~1813 kbps avg, 0.20 bit/pixel
Аудио: 48 kHz, AC3 Dolby Digital, 2/0 (L,R) ch, ~192.00 kbps avg
Дорожка с Ю. Сербиным синхронизирована и наложена ale_x2008 при помощи Sony Vegas и VirtualDubMod.
За оцифрованную с VHS дорожку благодарим - Алекс_011 и за активное участие Sergunka172
Релиз с этим переводом является эксклюзивом для экс юа, при выкладывании на других ресурсах просьба указывать первоисточник и авторство.
E:\INTERNET\Executive Target.1997.DVDRip.[AVO_Serbin].avi
General
Complete name : E:\INTERNET\Executive Target.1997.DVDRip.[AVO_Serbin].avi
Format : AVI
Format/Info : Audio Video Interleave
File size : 1.29 GiB
Duration : 1h 31mn
Overall bit rate : 2 015 Kbps
Video #0
ID : 0
Format : MPEG-4 Visual
Format profile : Advanced Simple@L5
Format settings, BVOP : 2
Format settings, QPel : No
Format settings, GMC : No warppoints
Format settings, Matrix : Custom
Codec ID : XVID
Codec ID/Hint : XviD
Duration : 1h 31mn
Bit rate : 1 813 Kbps
Width : 704 pixels
Height : 512 pixels
Display aspect ratio : 1.375
Frame rate : 25.000 fps
Color space : YUV
Chroma subsampling : 4:2:0
Bit depth : 8 bits
Scan type : Progressive
Compression mode : Lossy
Bits/(Pixel*Frame) : 0.201
Stream size : 1.16 GiB (90%)
Writing library : XviD 1.2.1 (UTC 2008-12-04)
Audio #1
ID : 1
Format : AC-3
Format/Info : Audio Coding 3
Mode extension : CM (complete main)
Format settings, Endianness : Big
Codec ID : 2000
Duration : 1h 31mn
Bit rate mode : Constant
Bit rate : 192 Kbps
Channel(s) : 2 channels
Channel positions : Front: L R
Sampling rate : 48.0 KHz
Bit depth : 16 bits
Compression mode : Lossy
Stream size : 126 MiB (10%)
Alignment : Split accross interleaves
Interleave, duration : 40 ms (1.00 video frame)
Interleave, preload duration : 500 ms




Скачать Цель.№1.Executive.target.(Джозеф.Мерхи.Joseph.Merhi).[1997.боевик.DVDRip].[AVO].(Юрий.Сербин).torrent без регистрации
Золото ЗОЛОТАЯ РАЗДАЧА! СКАЧАННОЕ НЕ ЗАСЧИТЫВАЕТСЯ! Золото
Дата: Зарегистрирован   [ Тип: внутренний ] Как тут cкачать?
MAGNET ссылка
MAGNET ссылка


Скачать .torrent

13 KB

Статус: проверено DHT
Скачан: торрент - 115 раз, раздача полностью - 2 раз
Размер: 1,29 GB
Оценка:  - (Голосов: 0)
Поблагодарили: 3
Поделиться ссылкой на эту раздачу с друзьями:
В контактеFacebookОдноклассникиTwitterLivejournalМой МирLiveinternet
 

 
Показать сообщения:    


Вы не можете начинать темы
Вы не можете отвечать на сообщения
Вы не можете редактировать свои сообщения
Вы не можете удалять свои сообщения
Вы не можете голосовать в опросах
Вы не можете прикреплять файлы к сообщениям
Вы можете скачивать файлы