Loading...
Error

Скачать Храм Шаолинь / The Shaolin Temple / Shao Lin Si (Чанг Хсин Ен) [1982, боевик, восточные единоборства, BDRip-AVC] [AVO] торрент без регистрации

 
Статистика раздачи
Размер:  3,07 GB   |    Скачан:  120 раз
Сидов:  1  [  0 KB/s  ]  
 
Автор Сообщение

Marsianka

[] 

Информация о фильме
Название: Храм Шаолинь
Оригинальное название: The Shaolin Temple
Год выпуска: 1982
Жанр: боевик, восточные единоборства
Режиссер: Чанг Хсин Ен
В ролях: Джет Ли, Динг Лан, Чун Хуа Джи, Ванг Джуе, Лиу Хуаи Лианг, Пань Цинфу, Куи Жи Кванг, Ху Джиан Кванг, Ванг Гуанг Квон, Сан Джиан Куи, Ян Ди Хуа, Ду Чуан Янг, Хай Ю, Цзяньвэн Чжан

О фильме: Юноша, сбежавший из лагеря рабов, находит приют у монахов храма Шаолиня. Под их руководством он изучает боевые искусства, в надежде отомстить убийце своего отца - предателю-генералу. Монахи защищают героя, помогая ему свершить возмездие. Сражаясь с войсками изменника, они спасают императора, который щедро вознаграждает их.



Страна: Китай, Гонконг
Студия: Chung Yuen Motion Picture Company, Zhongyuan Film
Продолжительность: 01:39:55
Перевод: Авторский одноголосый

Файл
Кодек: х264
Качество: BDRip (AVC)
Видео: MPEG-4 AVC, 3500 Кбит/с, 1024x426, 23.976 кадр/с
Аудио #1: Русский (AC3, 6 ch, 448 Кбит/с) / Авторский одноголосый (А. Кузнецов)
Аудио #2: Китайский (AC3, 6 ch, 448 Кбит/с)

Семпл
За исходник спасибо HDTrecker
За русскую звуковую дорогу спасибо Anoobis
x264 [info]: frame I:1053 Avg QP:16.57 size: 78636
x264 [info]: frame P:37822 Avg QP:19.29 size: 32329
x264 [info]: frame B:104885 Avg QP:20.71 size: 12565
______________________________________________________________________________________
Общее
Уникальный идентификатор : 218274228682427597789166026437193277989 (0xA4361659FF561A68881569DFE98EA225)
Полное имя : D:Mои раздачиHram.Shaolinj.1982.BDRip.(AVC)-MediaClub.mkv
Формат : Matroska
Версия формата : Version 4 / Version 2
Размер файла : 3,07 Гбайт
Продолжительность : 1 ч. 39 м.
Общий поток : 4398 Кбит/сек
Название фильма : Shao Lin Si / The Shaolin Temple (-=MediaClub-kaspr=-)
Дата кодирования : UTC 2013-08-13 13:49:39
Программа кодирования : mkvmerge v6.3.0 ('You can't stop me!') built on Jul 19 2013 16:27:38
Библиотека кодирования : libebml v1.3.0 + libmatroska v1.4.1

Видео
Идентификатор : 1
Формат : AVC
Формат/Информация : Advanced Video Codec
Профиль формата : High@L4.1
Параметр CABAC формата : Да
Параметр ReFrames формата : 9 кадров
Идентификатор кодека : V_MPEG4/ISO/AVC
Продолжительность : 1 ч. 39 м.
Битрейт : 3500 Кбит/сек
Ширина : 1024 пикселя
Высота : 426 пикселей
Соотношение сторон : 2,40:1
Режим частоты кадров : Постоянный
Частота кадров : 23,976 кадра/сек
Цветовое пространство : YUV
Субдискретизация насыщенности : 4:2:0
Битовая глубина : 8 бит
Тип развёртки : Прогрессивная
Бит/(Пиксели*Кадры) : 0.335
Размер потока : 2,38 Гбайт (78%)
Заголовок : -=MediaClub-kaspr=-
Библиотека кодирования : x264 core 130 r2273 b3065e6
Настройки программы : cabac=1 / ref=9 / deblock=1:-3:-3 / analyse=0x3:0x133 / me=umh / subme=11 / psy=1 / psy_rd=1.00:0.20 / mixed_ref=1 / me_range=48 / chroma_me=1 / trellis=2 / 8x8dct=1 / cqm=0 / deadzone=21,11 / fast_pskip=0 / chroma_qp_offset=-3 / threads=12 / lookahead_threads=3 / sliced_threads=0 / nr=0 / decimate=0 / interlaced=0 / bluray_compat=0 / constrained_intra=0 / bframes=10 / b_pyramid=2 / b_adapt=2 / b_bias=0 / direct=3 / weightb=1 / open_gop=0 / weightp=2 / keyint=240 / keyint_min=23 / scenecut=40 / intra_refresh=0 / rc=2pass / mbtree=0 / bitrate=3500 / ratetol=1.0 / qcomp=0.60 / qpmin=0 / qpmax=69 / qpstep=4 / cplxblur=20.0 / qblur=0.5 / ip_ratio=1.40 / pb_ratio=1.30 / aq=1:1.00
Default : Да
Forced : Да

Аудио #1
Идентификатор : 2
Формат : AC-3
Формат/Информация : Audio Coding 3
Расширение режима : CM (complete main)
Параметр Endianness формата : Big
Идентификатор кодека : A_AC3
Продолжительность : 1 ч. 39 м.
Вид битрейта : Постоянный
Битрейт : 448 Кбит/сек
Каналы : 6 каналов
Расположение каналов : Front: L C R, Side: L R, LFE
Частота : 48,0 КГц
Битовая глубина : 16 бит
Метод сжатия : С потерями
Размер потока : 320 Мбайт (10%)
Заголовок : А. Кузнецов
Язык : Russian
Default : Да
Forced : Да

Аудио #2
Идентификатор : 3
Формат : AC-3
Формат/Информация : Audio Coding 3
Расширение режима : CM (complete main)
Параметр Endianness формата : Big
Идентификатор кодека : A_AC3
Продолжительность : 1 ч. 39 м.
Вид битрейта : Постоянный
Битрейт : 448 Кбит/сек
Каналы : 6 каналов
Расположение каналов : Front: L C R, Side: L R, LFE
Частота : 48,0 КГц
Битовая глубина : 16 бит
Метод сжатия : С потерями
Размер потока : 320 Мбайт (10%)
Язык : Chinese
Default : Нет
Forced : Нет

Меню
00:00:00.000 : zh:Chapter 1
00:04:50.373 : zh:Chapter 2
00:07:21.941 : zh:Chapter 3
00:11:09.126 : zh:Chapter 4
00:14:18.566 : zh:Chapter 5
00:18:40.452 : zh:Chapter 6
00:22:01.236 : zh:Chapter 7
00:25:56.846 : zh:Chapter 8
00:29:59.047 : zh:Chapter 9
00:35:14.112 : zh:Chapter 10
00:39:03.841 : zh:Chapter 11
00:42:58.325 : zh:Chapter 12
00:48:59.311 : zh:Chapter 13
00:51:49.064 : zh:Chapter 14
00:54:27.097 : zh:Chapter 15
01:00:07.895 : zh:Chapter 16
01:06:10.549 : zh:Chapter 17
01:10:16.295 : zh:Chapter 18
01:15:03.999 : zh:Chapter 19
01:20:02.380 : zh:Chapter 20
01:24:26.352 : zh:Chapter 21
01:28:06.447 : zh:Chapter 22
01:33:03.411 : zh:Chapter 23
01:38:34.825 : zh:Chapter 24
01:39:53.988 : zh:Chapter 25
Релиз:



Скачать Храм.Шаолинь.The.Shaolin.Temple.Shao.Lin.Si.(Чанг.Хсин.Ен).[1982.боевик.восточные.единоборства.BDRip-AVC].[AVO].torrent без регистрации
Золото ЗОЛОТАЯ РАЗДАЧА! СКАЧАННОЕ НЕ ЗАСЧИТЫВАЕТСЯ! Золото
Дата: Зарегистрирован   [ Тип: внутренний ] Как тут cкачать?
MAGNET ссылка
MAGNET ссылка


Скачать .torrent

16 KB

Статус: проверено DHT
Скачан: торрент - 120 раз, раздача полностью - 17 раз
Размер: 3,07 GB
Оценка:  - (Голосов: 0)
Поблагодарили: 3
Поделиться ссылкой на эту раздачу с друзьями:
В контактеFacebookОдноклассникиTwitterLivejournalМой МирLiveinternet
 

 
Показать сообщения:    


Вы не можете начинать темы
Вы не можете отвечать на сообщения
Вы не можете редактировать свои сообщения
Вы не можете удалять свои сообщения
Вы не можете голосовать в опросах
Вы не можете прикреплять файлы к сообщениям
Вы можете скачивать файлы