Loading...
Error

Скачать Храм Шаолинь 2: Дети Шаолиня / Shao Lin xiao zi / The Shaolin Temple 2: Kids From Shaoline (Хсинь-янь Чан) [1984, боевик, восточные единоборства, BDRip-AVC] [AVO] торрент без регистрации

 
Статистика раздачи
Размер:  3,18 GB   |    Скачан:  123 раза
Сидов:  1  [  0 KB/s  ]  
 
Автор Сообщение

Marsianka

[] 

Информация о фильме
Название: Храм Шаолинь 2: Дети Шаолиня
Оригинальное название: Shao Lin xiao zi (The Shaolin Temple 2: Kids From Shaoline)
Год выпуска: 1984
Жанр: боевик, восточные единоборства
Режиссер: Хсинь-янь Чан
В ролях: Джет Ли, Динг Лан, Чау-Инь Вон, Гордон Лиу, Пань Цинфу, Чэн-Хой Ю, Хай Ю, Ху Джиан Кванг

О фильме: Вторая часть трилогии. Две семьи различных боевых школ живут по обеим сторонам реки, храня дружественные отношения. Одна семья - девушки, практикующие стиль Меч Ву Танга, а другая - юноши, воспитанные в традициях Шаолиня. Когда отцу семейства Ву Тангов угрожает смертельная опасность, бойцы из Шаолиня приходят на помощь



Страна: Гонконг
Студия: Chung Yuen Motion Picture Company
Продолжительность: 01:43:22
Перевод: Авторский одноголосый закадровый

Файл
Кодек: х264
Качество: BDRip (AVC)
Видео: MPEG-4 AVC, 3500 Кбит/с, 1024x426, 23.976 кадр/с
Аудио #1: Русский (AC3, 6 ch, 448 Кбит/с) / Авторский одноголосый (А. Кузнецов)
Аудио #2: Китайский (AC3, 6 ch, 448 Кбит/с)

Семпл
За исходник спасибо HDTrecker
За русскую звуковую дорогу спасибо Anoobis
За предоставленный постер огромное спасибо команде: Media-Art-Club
x264 [info]: frame I:1161 Avg QP:15.44 size: 80617
x264 [info]: frame P:38079 Avg QP:18.16 size: 32926
x264 [info]: frame B:109488 Avg QP:19.62 size: 12479
____________________________________________________________________________________________
Общее
Уникальный идентификатор : 234147564186621248080497316652699585226 (0xB0272E370868BAACBE675ED3704B8ACA)
Полное имя : D:Mои раздачиHram.Shaolinj-2.1984.BDRip.(AVC)-MediaClub.mkv
Формат : Matroska
Версия формата : Version 4 / Version 2
Размер файла : 3,18 Гбайт
Продолжительность : 1 ч. 43 м.
Общий поток : 4398 Кбит/сек
Название фильма : Shao Lin xiao zi / The Shaolin Temple 2: Kids From Shaoline (-=MediaClub-kaspr=-)
Дата кодирования : UTC 2013-08-14 04:50:25
Программа кодирования : mkvmerge v6.3.0 ('You can't stop me!') built on Jul 19 2013 16:27:38
Библиотека кодирования : libebml v1.3.0 + libmatroska v1.4.1

Видео
Идентификатор : 1
Формат : AVC
Формат/Информация : Advanced Video Codec
Профиль формата : High@L4.1
Параметр CABAC формата : Да
Параметр ReFrames формата : 9 кадров
Идентификатор кодека : V_MPEG4/ISO/AVC
Продолжительность : 1 ч. 43 м.
Битрейт : 3500 Кбит/сек
Ширина : 1024 пикселя
Высота : 426 пикселей
Соотношение сторон : 2,40:1
Режим частоты кадров : Постоянный
Частота кадров : 23,976 кадра/сек
Цветовое пространство : YUV
Субдискретизация насыщенности : 4:2:0
Битовая глубина : 8 бит
Тип развёртки : Прогрессивная
Бит/(Пиксели*Кадры) : 0.335
Размер потока : 2,47 Гбайт (78%)
Заголовок : -=MediaClub-kaspr=-
Библиотека кодирования : x264 core 130 r2273 b3065e6
Настройки программы : cabac=1 / ref=9 / deblock=1:-3:-3 / analyse=0x3:0x133 / me=umh / subme=11 / psy=1 / psy_rd=1.00:0.20 / mixed_ref=1 / me_range=48 / chroma_me=1 / trellis=2 / 8x8dct=1 / cqm=0 / deadzone=21,11 / fast_pskip=0 / chroma_qp_offset=-3 / threads=12 / lookahead_threads=3 / sliced_threads=0 / nr=0 / decimate=0 / interlaced=0 / bluray_compat=0 / constrained_intra=0 / bframes=10 / b_pyramid=2 / b_adapt=2 / b_bias=0 / direct=3 / weightb=1 / open_gop=0 / weightp=2 / keyint=240 / keyint_min=23 / scenecut=40 / intra_refresh=0 / rc=2pass / mbtree=0 / bitrate=3500 / ratetol=1.0 / qcomp=0.60 / qpmin=0 / qpmax=69 / qpstep=4 / cplxblur=20.0 / qblur=0.5 / ip_ratio=1.40 / pb_ratio=1.30 / aq=1:1.00
Default : Да
Forced : Да

Аудио #1
Идентификатор : 2
Формат : AC-3
Формат/Информация : Audio Coding 3
Расширение режима : CM (complete main)
Параметр Endianness формата : Big
Идентификатор кодека : A_AC3
Продолжительность : 1 ч. 43 м.
Вид битрейта : Постоянный
Битрейт : 448 Кбит/сек
Каналы : 6 каналов
Расположение каналов : Front: L C R, Side: L R, LFE
Частота : 48,0 КГц
Битовая глубина : 16 бит
Метод сжатия : С потерями
Размер потока : 331 Мбайт (10%)
Заголовок : Кузнецов
Язык : Russian
Default : Да
Forced : Да

Аудио #2
Идентификатор : 3
Формат : AC-3
Формат/Информация : Audio Coding 3
Расширение режима : CM (complete main)
Параметр Endianness формата : Big
Идентификатор кодека : A_AC3
Продолжительность : 1 ч. 43 м.
Вид битрейта : Постоянный
Битрейт : 448 Кбит/сек
Каналы : 6 каналов
Расположение каналов : Front: L C R, Side: L R, LFE
Частота : 48,0 КГц
Битовая глубина : 16 бит
Метод сжатия : С потерями
Размер потока : 331 Мбайт (10%)
Заголовок : Оригиал
Язык : Chinese
Default : Нет
Forced : Нет

Меню
00:00:00.000 : zh:Chapter 1
00:03:39.260 : zh:Chapter 2
00:08:33.262 : zh:Chapter 3
00:13:17.129 : zh:Chapter 4
00:16:38.163 : zh:Chapter 5
00:21:14.731 : zh:Chapter 6
00:26:44.686 : zh:Chapter 7
00:32:56.891 : zh:Chapter 8
00:36:19.969 : zh:Chapter 9
00:41:02.626 : zh:Chapter 10
00:44:38.092 : zh:Chapter 11
00:48:00.794 : zh:Chapter 12
00:54:01.655 : zh:Chapter 13
00:58:51.653 : zh:Chapter 14
01:01:14.128 : zh:Chapter 15
01:05:09.196 : zh:Chapter 16
01:08:27.269 : zh:Chapter 17
01:12:24.423 : zh:Chapter 18
01:18:53.353 : zh:Chapter 19
01:24:44.621 : zh:Chapter 20
01:28:21.838 : zh:Chapter 21
01:33:31.105 : zh:Chapter 22
01:38:45.169 : zh:Chapter 23
01:41:49.436 : zh:Chapter 24
01:43:21.195 : zh:Chapter 25
Релиз:



Скачать Храм.Шаолинь.2.Дети.Шаолиня.Shao.Lin.xiao.zi.The.Shaolin.Temple.2.Kids.From.Shaoline.(Хсинь-янь.Чан).[1984.боевик.восточные.единоборства.BDRip-AVC].[AVO].torrent без регистрации
Золото ЗОЛОТАЯ РАЗДАЧА! СКАЧАННОЕ НЕ ЗАСЧИТЫВАЕТСЯ! Золото
Дата: Зарегистрирован   [ Тип: внутренний ] Как тут cкачать?
MAGNET ссылка
MAGNET ссылка


Скачать .torrent

16 KB

Статус: проверено DHT
Скачан: торрент - 123 раз, раздача полностью - 19 раз
Размер: 3,18 GB
Оценка:  - (Голосов: 0)
Поблагодарили: 2
Поделиться ссылкой на эту раздачу с друзьями:
В контактеFacebookОдноклассникиTwitterLivejournalМой МирLiveinternet
 

 
Показать сообщения:    


Вы не можете начинать темы
Вы не можете отвечать на сообщения
Вы не можете редактировать свои сообщения
Вы не можете удалять свои сообщения
Вы не можете голосовать в опросах
Вы не можете прикреплять файлы к сообщениям
Вы можете скачивать файлы