Loading...
Error

Скачать Друзья / Friends (Сезон 1-10, Серии 1-236 из 236) (Робби Бенсон, Питер Бонерц) [1994-2004, ситком, комедия, DVDRip] MVO (СТС) торрент без регистрации

 
Статистика раздачи
Размер:  92,29 GB   |    Скачан:  301 раз
Сидов:  1  [  0 KB/s  ]  
 
Автор Сообщение

deadmauVlad

[] 

Друзья / Friends


Год выпуска: 1994-2004
Страна: США
Жанр: ситком, комедия
Продолжительность: ~00:23:31
Перевод: Профессиональный многоголосый закадровый - СТС, не показаные в эфире моменты - одноголосый перевод
Русские субтитры: нет
Субтитры: отсутствуют

Режиссёр: Робби Бенсон / Robby Benson, Питер Бонерц / Peter Bonerz, Кевин Брайт / Kevin Bright, Джеймс Берроуз / James Burrows, Гэри Хэлворсон / Gary Halvorson, Гэйл Манкузо / Gail Mancuso, Майкл Лембек / Michael Lembeck, Дэвид Швиммер / David Schwimmer

В ролях: Дженнифер Энистон, Кортни Кокс, Лиза Кудроу, Мэтт ЛеБлан, Мэттью Перри, Дэвид Швиммер, Джеймс Майкл Тайлер, Эллиот Гулд, Кристина Пиклз, Мэгги Уиллер, Том Селлек,
В эпизодах снимались: Брюс Уиллис, Джулия Робертс, Брук Шилдс, Бред Питт, Джордж Клуни, Ноа Уайл, Хелен Хант, Дина Майер, Гери Олдмен, Фредди Принц мл., Сьюзен Сарандон, Риз Уизерспун, Алек Болдуин, Селма Блейр, Шон Пенн, Денни де Вито и др.
Описание: Веселые и обаятельные герои "Друзей" - простые американские ребята. Ветреная Рейчел, красотка Моника, известная своими неудачными романами, весельчак Чандлер, сентиментальная Фиби, красавчик Джоуи, мечтающий стать знаменитым актером, добродушный интеллектуал Росс. Они влюбляются, ищут работу, ссорятся, женятся, разводятся, у них вечно не хватает денег. Приключения "великолепной шестерки" продолжаются, кое-кого из них ожидают большие перемены в личной жизни. Завоюет ли сердце Рейчел влюбленный Росс? Повезет ли Монике с очередным "избранником"?
Шестеро молодых людей, снимающие уютную квартиру в самом веселом богемном районе Нью-Йорка - "Вест Вилледж", завоевали всеобщую любовь сначала в Соединенных Штатах, а потом и за их пределами по обе стороны Атлантического океана. Их шутки становятся культовыми, поклонники подражают им во всем - манера одеваться, стрижки, любимые словечки. "Друзья" получили тридцать три номинации на "Эмми", из которых четыре - за "Лучший комедийный телесериал", и три номинации на "Золотой глобус".
Качество: DVDRip
Формат: AVI

Видео кодек: XviD
Аудио кодек
: AC3
Видео: 640x480 (1.33:1), 23.976 fps, XviD build 65 ~1914 kbps avg, 0.26 bit/pixel
Аудио: 48 kHz, AC3 Dolby Digital, 3/2 (L,C,R,l,r) ch, ~448 kbps (1-9 сезоны)
Аудио: 48 kHz, AC3 Dolby Digital, 2/0 (L,R) ch, ~192 kbps (10 сезон)
General
Complete name : G:\Friends.dvdrip_[teko]\season.04\02.demuxed.avi
Format : AVI
Format/Info : Audio Video Interleave
File size : 399 MiB
Duration : 24mn 5s
Overall bit rate : 2 316 Kbps
Writing application : VirtualDubMod 1.5.10.3 | www.virtualdub-fr.org || (build 2550/release)
Writing library : VirtualDubMod build 2550/release

Video
ID : 0
Format : MPEG-4 Visual
Format profile : Advanced Simple@L5
Format settings, BVOP : 2
Format settings, QPel : No
Format settings, GMC : No warppoints
Format settings, Matrix : Custom
Codec ID : XVID
Codec ID/Hint : XviD
Duration : 24mn 5s
Bit rate : 1 859 Kbps
Width : 640 pixels
Height : 480 pixels
Display aspect ratio : 4:3
Frame rate : 23.976 fps
Color space : YUV
Chroma subsampling : 4:2:0
Bit depth : 8 bits
Scan type : Progressive
Compression mode : Lossy
Bits/(Pixel*Frame) : 0.252
Stream size : 320 MiB (80%)
Writing library : XviD 65

Audio
ID : 1
Format : AC-3
Format/Info : Audio Coding 3
Mode extension : CM (complete main)
Codec ID : 2000
Duration : 24mn 4s
Bit rate mode : Constant
Bit rate : 448 Kbps
Channel(s) : 5 channels
Channel positions : Front: L C R, Side: L R
Sampling rate : 48.0 KHz
Bit depth : 16 bits
Compression mode : Lossy
Stream size : 77.2 MiB (19%)
Alignment : Split accross interleaves
Interleave, duration : 42 ms (1.00 video frame)
Interleave, preload duration : 500 ms



Скачать Друзья.Friends.(Сезон.1-10.Серии.1-236.из.236).(Робби.Бенсон.Питер.Бонерц).[1994-2004.ситком.комедия.DVDRip].MVO.(СТС).torrent без регистрации
Золото ЗОЛОТАЯ РАЗДАЧА! СКАЧАННОЕ НЕ ЗАСЧИТЫВАЕТСЯ! Золото
Дата: Зарегистрирован   [ Тип: внутренний ] Как тут cкачать?
MAGNET ссылка
MAGNET ссылка


Скачать .torrent

250 KB

Статус: проверено DHT
Скачан: торрент - 301 раз, раздача полностью - 165 раз
Размер: 92,29 GB
Оценка:  5 (Голосов: 2)
Поблагодарили: 8
Поделиться ссылкой на эту раздачу с друзьями:
В контактеFacebookОдноклассникиTwitterLivejournalМой МирLiveinternet
 

 

niko1995

[] 

как я обажаю этот сериал я по нему просто сума схожу он очень клевый и очень комедичный качайте и смотрите точно не пожалеете. ag ag ag ag ag ag aj
 

черепаха

[] 

встаньте на раздачу плизззззззз
 
Показать сообщения:    


Вы не можете начинать темы
Вы не можете отвечать на сообщения
Вы не можете редактировать свои сообщения
Вы не можете удалять свои сообщения
Вы не можете голосовать в опросах
Вы не можете прикреплять файлы к сообщениям
Вы можете скачивать файлы