Loading...
Error

Скачать Храм Шаолинь 3: Боевые искусства Шаолиня / Nan bei Shao Lin / The Shaolin Temple 3: Martial Arts of Shaolin (Лю Чя-Лян) [1986, восточные единоборства, BDRip-AVC] [DVO]+[AVO] торрент без регистрации

 
Статистика раздачи
Размер:  2,49 GB   |    Скачан:  132 раза
Сидов:  1  [  0 KB/s  ]  
 
Автор Сообщение

Marsianka

[] 

Информация о фильме
Название: Храм Шаолинь 3: Боевые искусства Шаолиня
Оригинальное название: Nan bei Shao Lin (The Shaolin Temple 3: Martial Arts of Shaolin)
Год выпуска: 1986
Жанр: восточные единоборства
Режиссер: Лю Чя-Лян
В ролях: Джет Ли, Чау-Инь Вон, Пань Цинфу, Ху Джиан Кванг, Чэн-Хой Ю, Хай Ю, Цзяньвэн Чжан

О фильме: Жи Минг, монах из северного Храма Шаолиня узнает, что жестокий правитель, который убил его родителей, устраивает празднество по случаю своего дня рождения. Планируя отомстить диктатору, монах находит ещё двух помощников из южного Шаолиня. Все трое терпят неудачу и солдаты их арестовывают. Но они совершают побег, переодевшись в молодожёнов. Во имя справедливости они должны отомстить жестокому правителю



Страна: Гонконг, Китай
Студия: Shaw Brothers
Продолжительность: 01:33:51
Перевод: Профессиональный двухголосый, авторский одноголосый

Файл
Кодек: х264
Качество: BDRip (AVC)
Видео: MPEG-4 AVC, 2700 Кбит/с, 1024x436, 23.976 кадр/с
Аудио #1: Русский (AC3, 2 ch, 192 Кбит/с) / Профессиональный двухголосый
Аудио #2: Русский (AC3, 6 ch, 448 Кбит/с) / Авторский одноголосый (А. Кузнецов)
Аудио #3: Китайский (AC3, 6 ch, 448 Кбит/с)
Семпл
За исходник спасибо HDTrecker
За русскую звуковую дорогу (А. Кузнецов) спасибо Anoobis
За предоставленный постер огромное спасибо команде: Media-Art-Club
Общее
Уникальный идентификатор : 244003025948785407305437497400270277323 (0xB79145FED3749EB6976F6DA4BCC84ACB)
Полное имя : D:Mои раздачиHram.Shaolinj-3.1986.BDRip.(AVC)-MediaClub.mkv
Формат : Matroska
Версия формата : Version 4 / Version 2
Размер файла : 2,49 Гбайт
Продолжительность : 1 ч. 33 м.
Общий поток : 3791 Кбит/сек
Название фильма : -=MediaClub-kaspr=-
Дата кодирования : UTC 2013-08-15 05:47:00
Программа кодирования : mkvmerge v6.3.0 ('You can't stop me!') built on Jul 19 2013 16:27:38
Библиотека кодирования : libebml v1.3.0 + libmatroska v1.4.1

Видео
Идентификатор : 1
Формат : AVC
Формат/Информация : Advanced Video Codec
Профиль формата : High@L4.1
Параметр CABAC формата : Да
Параметр ReFrames формата : 9 кадров
Идентификатор кодека : V_MPEG4/ISO/AVC
Продолжительность : 1 ч. 33 м.
Битрейт : 2700 Кбит/сек
Ширина : 1024 пикселя
Высота : 436 пикселей
Соотношение сторон : 2,35:1
Режим частоты кадров : Постоянный
Частота кадров : 23,976 кадра/сек
Цветовое пространство : YUV
Субдискретизация насыщенности : 4:2:0
Битовая глубина : 8 бит
Тип развёртки : Прогрессивная
Бит/(Пиксели*Кадры) : 0.252
Размер потока : 1,72 Гбайт (69%)
Заголовок : -=MediaClub-kaspr=-
Библиотека кодирования : x264 core 130 r2273 b3065e6
Настройки программы : cabac=1 / ref=9 / deblock=1:-3:-3 / analyse=0x3:0x133 / me=umh / subme=11 / psy=1 / psy_rd=1.00:0.20 / mixed_ref=1 / me_range=48 / chroma_me=1 / trellis=2 / 8x8dct=1 / cqm=0 / deadzone=21,11 / fast_pskip=0 / chroma_qp_offset=-3 / threads=12 / lookahead_threads=3 / sliced_threads=0 / nr=0 / decimate=0 / interlaced=0 / bluray_compat=0 / constrained_intra=0 / bframes=10 / b_pyramid=2 / b_adapt=2 / b_bias=0 / direct=3 / weightb=1 / open_gop=0 / weightp=2 / keyint=240 / keyint_min=23 / scenecut=40 / intra_refresh=0 / rc=2pass / mbtree=0 / bitrate=2700 / ratetol=1.0 / qcomp=0.60 / qpmin=0 / qpmax=69 / qpstep=4 / cplxblur=20.0 / qblur=0.5 / ip_ratio=1.40 / pb_ratio=1.30 / aq=1:1.00
Default : Да
Forced : Да

Аудио #1
Идентификатор : 2
Формат : AC-3
Формат/Информация : Audio Coding 3
Расширение режима : CM (complete main)
Параметр Endianness формата : Big
Идентификатор кодека : A_AC3
Продолжительность : 1 ч. 33 м.
Вид битрейта : Постоянный
Битрейт : 192 Кбит/сек
Каналы : 2 канала
Расположение каналов : Front: L R
Частота : 48,0 КГц
Битовая глубина : 16 бит
Метод сжатия : С потерями
Размер потока : 129 Мбайт (5%)
Заголовок : ПД
Язык : Russian
Default : Нет
Forced : Да

Аудио #2
Идентификатор : 3
Формат : AC-3
Формат/Информация : Audio Coding 3
Расширение режима : CM (complete main)
Параметр Endianness формата : Big
Идентификатор кодека : A_AC3
Продолжительность : 1 ч. 33 м.
Вид битрейта : Постоянный
Битрейт : 448 Кбит/сек
Каналы : 6 каналов
Расположение каналов : Front: L C R, Side: L R, LFE
Частота : 48,0 КГц
Битовая глубина : 16 бит
Метод сжатия : С потерями
Размер потока : 301 Мбайт (12%)
Заголовок : Кузнецов
Язык : Russian
Default : Нет
Forced : Нет

Аудио #3
Идентификатор : 4
Формат : AC-3
Формат/Информация : Audio Coding 3
Расширение режима : CM (complete main)
Параметр Endianness формата : Big
Идентификатор кодека : A_AC3
Продолжительность : 1 ч. 33 м.
Вид битрейта : Постоянный
Битрейт : 448 Кбит/сек
Каналы : 6 каналов
Расположение каналов : Front: L C R, Side: L R, LFE
Частота : 48,0 КГц
Битовая глубина : 16 бит
Метод сжатия : С потерями
Размер потока : 301 Мбайт (12%)
Заголовок : Оригинал
Язык : Chinese
Default : Нет
Forced : Нет

Меню
00:00:00.000 : en:Chapter 01
00:03:34.130 : en:Chapter 02
00:07:24.569 : en:Chapter 03
00:10:49.982 : en:Chapter 04
00:14:49.847 : en:Chapter 05
00:18:39.910 : en:Chapter 06
00:22:21.131 : en:Chapter 07
00:25:19.392 : en:Chapter 08
00:33:51.779 : en:Chapter 09
00:39:53.766 : en:Chapter 10
00:43:13.966 : en:Chapter 11
00:48:00.419 : en:Chapter 12
00:53:24.868 : en:Chapter 13
00:56:40.897 : en:Chapter 14
01:03:15.291 : en:Chapter 15
01:08:30.147 : en:Chapter 16
01:09:08.060 : en:Chapter 17
01:11:55.477 : en:Chapter 18
01:17:31.021 : en:Chapter 19
01:19:27.679 : en:Chapter 20
01:22:46.961 : en:Chapter 21
01:25:11.356 : en:Chapter 22
01:27:49.931 : en:Chapter 23
01:31:46.083 : en:Chapter 24
01:33:38.070 : en:Chapter 25
01:33:43.784 : en:Chapter 26
01:33:50.625 : en:Chapter 27
Релиз:



Скачать Храм.Шаолинь.3.Боевые.искусства.Шаолиня.Nan.bei.Shao.Lin.The.Shaolin.Temple.3.Martial.Arts.of.Shaolin.(Лю.Чя-Лян).[1986.восточные.единоборства.BDRip-AVC].[DVO]+[AVO].torrent без регистрации
Золото ЗОЛОТАЯ РАЗДАЧА! СКАЧАННОЕ НЕ ЗАСЧИТЫВАЕТСЯ! Золото
Дата: Зарегистрирован   [ Тип: внутренний ] Как тут cкачать?
MAGNET ссылка
MAGNET ссылка


Скачать .torrent

13 KB

Статус: проверено DHT
Скачан: торрент - 132 раз, раздача полностью - 33 раз
Размер: 2,49 GB
Оценка:  - (Голосов: 0)
Поблагодарили: 2
Поделиться ссылкой на эту раздачу с друзьями:
В контактеFacebookОдноклассникиTwitterLivejournalМой МирLiveinternet
 

 
Показать сообщения:    


Вы не можете начинать темы
Вы не можете отвечать на сообщения
Вы не можете редактировать свои сообщения
Вы не можете удалять свои сообщения
Вы не можете голосовать в опросах
Вы не можете прикреплять файлы к сообщениям
Вы можете скачивать файлы