Loading...
Error

Скачать Дикие псы / Cani arrabbiati (Марио Бава) [1974, триллер, криминал, BDRip] [AVO]+[Sub] торрент без регистрации

 
Статистика раздачи
Размер:  1,53 GB   |    Скачан:  97 раз

Полного источника не было: 20 минут

 
Автор Сообщение

Marsianka

[] 

Название: Дикие псы
Оригинальное название: Cani arrabbiati
Год выпуска: 1974
Жанр: триллер, криминал
Выпущено: Италия, International Media Films, Spera Cinematografica
Режиссер: Марио Бава
В ролях: Риккардо Куччолла, Дон Бэки, Лиа Ландер, Морис Поли, Джордж Истмен, Мария Фаббри, Эрика Дарио, Луиджи Антонио Гуэрра, Франческо Феррини, Эмилио Бонуччи

О фильме: Четверо преступников нападают на инкассатора, привезшего месячную зарплату в институт. Полиция убивает одного из нападавших, но троим удаётся захватить в заложницы двух девушек на подземной автостоянке. На требования полиции сложить оружие бандиты убивают одну девушку и обещают убить другую, если их не пропустят. Полиция идёт на уступки, в результате чего бандиты захватывают машину с водителем, требуя вывезти их из города. Ситуация осложняется тем, что в машине находится смертельно больной ребенок, которому требуется срочная операция



Качество: BDRip
Видео: XviD, 1900 Кбит/с, 720x384
Аудио: Русский, итальянский (AC3, 2 ch, 192 Кбит/с)
Размер: 1.53 ГБ
Продолжительность: 01:35:38
Перевод: Авторский (Андрей Дольский)
Субтитры: Английские
cyberlaw

Галерея маньяков: Дикие псы Марио Бава

На первый взгляд эта картина совсем не о маньяках. Фильм рассказывает о насилии и его роли в современной жизни. С самых первых минут зритель оказывается втянутым в жёсткое и резкое повествование мы следим за грабителями банка, которые в спешке отстреливаются от полиции и берут заложников.
Удивительно, но Марио Бава показал нам такое ограбление, какое описывалось в «Бешеных псах» и «От заката до рассвета». Вообще, при просмотре я несколько раз вспоминал эти картины Тарантино и Родригеса уж слишком много цитат.
Далее о сюжете лучше умолчать, чтобы не уменьшать зрителю впечатление от просмотра. Достаточно просто сказать, что большая часть фильма пройдет в автомобиле.
Картина Марио Бава по-настоящему непредсказуема. До самых последних минут непонятно, чем же всё закончится. Принимая во внимание колоссальный темп, набранный режиссёром, фильм смотрится на одном дыхании. Важную роль играет и корректный хронометраж...
...В итоге: жесткий, напряженный боевик, который не может не натолкнуть на философские беседы о роли насилия в современном обществе. Один из лучших фильмов 1974 года, замечательная режиссура от Марио Бава и всех актёров.

10 из 10

Кинопоиск
Общее
Полное имя : E:VideoDikie.psy.1974.XviD.BDRipDikie.psy.1974.eng.srt
Размер файла : 146 Кбайт

Общее
Полное имя : E:VideoDikie.psy.1974.XviD.BDRipDikie.psy.1974.Original.ita.ac3
Формат : AC-3
Формат/Информация : Audio Coding 3
Размер файла : 131 Мбайт
Продолжительность : 1 ч. 35 м.
Режим общего битрейта : Постоянный
Общий поток : 192 Кбит/сек

Аудио
Формат : AC-3
Формат/Информация : Audio Coding 3
Расширение режима : CM (complete main)
Параметр Endianness формата : Big
Продолжительность : 1 ч. 35 м.
Вид битрейта : Постоянный
Битрейт : 192 Кбит/сек
Каналы : 2 канала
Расположение каналов : Front: L R
Частота : 48,0 КГц
Битовая глубина : 16 бит
Метод сжатия : С потерями
Размер потока : 131 Мбайт (100%)

Общее
Полное имя : E:VideoDikie.psy.1974.XviD.BDRipDikie.psy.1974.XviD.BDRip.avi
Формат : AVI
Формат/Информация : Audio Video Interleave
Размер файла : 1,40 Гбайт
Продолжительность : 1 ч. 35 м.
Общий поток : 2101 Кбит/сек
Программа кодирования : VirtualDubMod 1.5.10.2 (build 2540/release)
Библиотека кодирования : VirtualDubMod build 2540/release

Видео
Идентификатор : 0
Формат : MPEG-4 Visual
Профиль формата : Advanced Simple@L5
Параметр BVOP формата : 1
Параметр QPel формата : Нет
Параметр GMC формата : Без точки перехода
Параметр матрицы формата : Default (H.263)
Режим смешивания : Сжатый битовый поток
Идентификатор кодека : XVID
Идентификатор кодека/Подсказка : XviD
Продолжительность : 1 ч. 35 м.
Битрейт : 1900 Кбит/сек
Ширина : 720 пикселей
Высота : 384 пикселя
Соотношение сторон : 1,85:1
Частота кадров : 23,976 кадра/сек
Цветовое пространство : YUV
Субдискретизация насыщенности : 4:2:0
Битовая глубина : 8 бит
Тип развёртки : Прогрессивная
Метод сжатия : С потерями
Бит/(Пиксели*Кадры) : 0.287
Размер потока : 1,27 Гбайт (90%)
Библиотека кодирования : XviD 1.2.1 (UTC 2008-12-04)

Аудио
Идентификатор : 1
Формат : AC-3
Формат/Информация : Audio Coding 3
Расширение режима : CM (complete main)
Параметр Endianness формата : Big
Идентификатор кодека : 2000
Продолжительность : 1 ч. 35 м.
Вид битрейта : Постоянный
Битрейт : 192 Кбит/сек
Каналы : 2 канала
Расположение каналов : Front: L R
Частота : 48,0 КГц
Битовая глубина : 16 бит
Метод сжатия : С потерями
Размер потока : 131 Мбайт (9%)
Выравнивание : Разделение по промежуткам
Продолжительность промежутка : 42 мс. (1,00 видеокадр)
Время предзагрузки промежутка : 500 мс.



Скачать Дикие.псы.Cani.arrabbiati.(Марио.Бава).[1974.триллер.криминал.BDRip].[AVO]+[Sub].torrent без регистрации
Золото ЗОЛОТАЯ РАЗДАЧА! СКАЧАННОЕ НЕ ЗАСЧИТЫВАЕТСЯ! Золото
Дата: Зарегистрирован   [ Тип: внутренний ] Как тут cкачать?
MAGNET ссылка
MAGNET ссылка


Скачать .torrent

16 KB

Статус: проверено DHT
Скачан: торрент - 97 раз, раздача полностью - 1 раз
Размер: 1,53 GB
Оценка:  - (Голосов: 0)
Поблагодарили: 1
Поделиться ссылкой на эту раздачу с друзьями:
В контактеFacebookОдноклассникиTwitterLivejournalМой МирLiveinternet
 

 
Показать сообщения:    


Вы не можете начинать темы
Вы не можете отвечать на сообщения
Вы не можете редактировать свои сообщения
Вы не можете удалять свои сообщения
Вы не можете голосовать в опросах
Вы не можете прикреплять файлы к сообщениям
Вы можете скачивать файлы