Loading...
Error

Скачать Убийство / The Killing (сезон 03) (Эдвард Бьянчи, Дэниэл Эттиэс, Фил Абрахам) [2013, драма, криминал, детектив, WEB-DLRip] [720p] [MVO (LostFilm)] торрент без регистрации

 
Статистика раздачи
Размер:  17,53 GB   |    Скачан:  118 раз
Сидов:  1  [  0 KB/s  ]  
 
Автор Сообщение

МихаНЕзатор

[] 

Информация о фильме
Название: Убийство
Оригинальное название: The Killing
Год выхода: 2013
Жанр: Драма, криминал, детектив
Режиссер: Эдвард Бьянчи, Дэниэл Эттиэс, Фил Абрахам
В ролях: Мирей Инос, Юэль Киннаман, Брент Секстон, Мишель Форбс, Билл Кэмпбелл, Кристин Леман, Эрик Ладин, Джэми Браун, Том Батлер, Кэти Финдлей

О фильме:
Действие развернется год спустя после событий второго. Линден больше не детектив, но когда поиски пропавшей девушки приводят Холдера к череде ужасных убийств, связанных с её предыдущим расследованием, Линден придется вернуться к работе. В этом сезоне мы недосчитаемся нескольких старых персонажей, таких как Мэр Ричмонд и родители Рози Ларсен, но зато мы познакомимся с некоторыми другими, включая Тома Севарда, приговоренного к смерти убийцы; бывшего напарника Линден, Эда Скиннера и Данетт Лутц - ужасной матери, у которой пропала без вести 15-летняя дочь.



Страна: США, Канада
Продолжительность: 12 x ~ 00:43:00
Перевод: Профессиональный многоголосый (LostFilm)

Автор WEB-DL 720p Ntb
Работа со звуком Gater
Релиз подготовил Gater
Постер Gater

Файл
Кодек: MPEG-4 AVC
Качество: WEB-DL 720p
Видео: ~ 4000 Кбит/с, 1280x718, 23.976 кадр/с
Звук: Русский, английский (AC3, 6 ch, 384 Кбит/с)

01. The Jungle / Джунгли
02. That You Fear the Most / Самый Страшный Страх
03. Seventeen / Семнадцать
04. Head Shots / Выстрел в голову
05. Scared and Running / Беглянка
06. Eminent Domain / Суверенное Право
07. Hope Kills / Надежда убивает
08. Попытка / Try
09. Отсчет / Reckoning
10. 6 минут / Six Minutes
11. Отсюда и вверх / From Up Here
12. The Road to Hamelin

Золотой глобус, 2012 год

Номинации (1):
Лучшая женская роль на ТВ (драма) (Мирей Инос)

Сатурн, 2012 год
Победитель (1):
Лучшая телеактриса второго плана (Мишель Форбс)

Номинации (3):
Лучшая телеактриса (Мирей Инос)
Лучший телеактер второго плана (Юэль Киннаман)
Лучший телесериал, созданный для кабельного телевидения

Эмми, 2011 год

Номинации (2):
Лучшая женская роль в драматическом сериале (Мирей Инос)
Лучшая женская роль второго плана в драматическом сериале (Мишель Форбс)

Общее
Уникальный идентификатор : 195931292340997022777775380327459424889 (0x9366FE8A322441CCAD9832AC0D4F8A79)
Полное имя : The Killing S03 WEB-DL 720p (DD 5.1 Lostfilm)The Killing S03E01 WEB-DL 720p (DD 5.1 Lostfilm).mkv
Формат : Matroska
Версия формата : Version 2
Размер файла : 1,40 Гбайт
Продолжительность : 43 м.
Общий поток : 4671 Кбит/сек
Дата кодирования : UTC 2013-06-12 16:44:50
Программа кодирования : mkvmerge v4.0.0 ('The Stars were mine') сборка от Jun 6 2010 16:18:42
Библиотека кодирования : libebml v1.0.0 + libmatroska v1.0.0

Видео
Идентификатор : 1
Формат : AVC
Формат/Информация : Advanced Video Codec
Профиль формата : High@L3.1
Параметр CABAC формата : Нет
Параметр ReFrames формата : 2 кадра
Идентификатор кодека : V_MPEG4/ISO/AVC
Продолжительность : 43 м.
Битрейт : 3810 Кбит/сек
Ширина : 1280 пикселей
Высота : 718 пикселей
Соотношение сторон : 16:9
Частота кадров : 23,976 кадра/сек
Цветовое пространство : YUV
Субдискретизация насыщенности : 4:2:0
Битовая глубина : 8 бит
Тип развёртки : Прогрессивная
Бит/(Пиксели*Кадры) : 0.173
Размер потока : 1,15 Гбайт (82%)
Язык : English
Default : Нет
Forced : Нет
Основные цвета : BT.709-5, BT.1361, IEC 61966-2-4, SMPTE RP177
Характеристики трансфера : BT.709-5, BT.1361
Коэффициенты матрицы : BT.709-5, BT.1361, IEC 61966-2-4 709, SMPTE RP177

Аудио #1
Идентификатор : 2
Формат : AC-3
Формат/Информация : Audio Coding 3
Расширение режима : CM (complete main)
Параметр Endianness формата : Big
Идентификатор кодека : A_AC3
Продолжительность : 43 м.
Вид битрейта : Постоянный
Битрейт : 384 Кбит/сек
Каналы : 6 каналов
Расположение каналов : Front: L C R, Side: L R, LFE
Частота : 48,0 КГц
Битовая глубина : 16 бит
Метод сжатия : С потерями
Размер потока : 118 Мбайт (8%)
Язык : Russian
Default : Да
Forced : Нет

Аудио #2
Идентификатор : 3
Формат : AC-3
Формат/Информация : Audio Coding 3
Расширение режима : CM (complete main)
Параметр Endianness формата : Big
Идентификатор кодека : A_AC3
Продолжительность : 43 м.
Вид битрейта : Постоянный
Битрейт : 384 Кбит/сек
Каналы : 6 каналов
Расположение каналов : Front: L C R, Side: L R, LFE
Частота : 48,0 КГц
Битовая глубина : 16 бит
Метод сжатия : С потерями
Размер потока : 118 Мбайт (8%)
Язык : English
Default : Нет
Forced : Нет



Скачать Убийство.The.Killing.(сезон.03).(Эдвард.Бьянчи.Дэниэл.Эттиэс.Фил.Абрахам).[2013.драма.криминал.детектив.WEB-DLRip].[720p].[MVO.(LostFilm)].torrent без регистрации
Золото ЗОЛОТАЯ РАЗДАЧА! СКАЧАННОЕ НЕ ЗАСЧИТЫВАЕТСЯ! Золото
Дата: Зарегистрирован   [ Тип: внутренний ] Как тут cкачать?
MAGNET ссылка
MAGNET ссылка


Скачать .torrent

45 KB

Статус: проверено DHT
Скачан: торрент - 118 раз, раздача полностью - 38 раз
Размер: 17,53 GB
Оценка:  - (Голосов: 0)
Поблагодарили: 1
Поделиться ссылкой на эту раздачу с друзьями:
В контактеFacebookОдноклассникиTwitterLivejournalМой МирLiveinternet
 

 
Показать сообщения:    


Вы не можете начинать темы
Вы не можете отвечать на сообщения
Вы не можете редактировать свои сообщения
Вы не можете удалять свои сообщения
Вы не можете голосовать в опросах
Вы не можете прикреплять файлы к сообщениям
Вы можете скачивать файлы