Loading...
Error

Скачать Петля / Tightrope (Ричард Таггл / Richard Tuggle) [1984, Триллер, драма, криминал, детектив, HDTVRip] [AVO] (Л.Володарский) + [AVO] (А.Михалёв) торрент без регистрации

 
Статистика раздачи
Размер:  1,51 GB   |    Скачан:  112 раз
Сидов:  1  [  0 KB/s  ]  
 
Автор Сообщение

leon030982

[] 


Петля / Tightrope



Год выпуска: 1984
Страна: США
Жанр: Триллер, драма, криминал, детектив
Продолжительность: 01:54:15
Перевод #1: Авторский (одноголосый, закадровый) [Леонид Володарский]
Перевод #2: Авторский (одноголосый, закадровый) [Алексей Михалёв]
Субтитры: нет

Режиссёр: Ричард Таггл / Richard Tuggle
В ролях: Клинт Иствуд, Женевьев Бюжо, Дэн Хедайя, Элисон Иствуд, Дженни Бек, Марко Ст. Джон, Ребекка Перл, Реджина Ричардсон, Рэнди Брукс, Джейми Роуз, Маргарет Хауэлл, Ребекка Клемонс
Описание: Психопат затеял с опытным полицейским опасную игру, заставляя мыслить так же. Он подбирается близко к самому дорогому для Уэйса - дочерям Аманде и Пенни. Очаровательная Берил Тибодей из центра самозащиты в лице взволнованной общественности предлагает свою помощь, и сама чуть не становится одной из жертв.


Качество: HDTVRip
Формат: AVI
Видео кодек: XviD
Аудио кодек: MP3
Видео: 704x400 (1.76:1), 23.976 fps, XviD build 65 ~1622 kbps avg, 0.24 bit/pixel
Аудио 1: 48 kHz, MPEG Layer 3, 2 ch, ~128.00 kbps avg [Л.Володарский]
Аудио 2: 48 kHz, MPEG Layer 3, 2 ch, ~128.00 kbps avg [А.Михалёв]
Уже не в первый раз герой Клинта Иствуда идёт по следу сексуального маньяка или убийцы. Но новоорлеанский полицейский Уэс Блок из фильма «Как по канату» (иной перевод «Балансируя на канате»), возможно, рискует больше других. Поскольку он, пытаясь лучше понять психологию преступника и вычислить будущую жертву, сам отправляется по злачным местам города, как бы идентифицируя себя с маньяком. Однако хитроумный убийца выходит на ответную охоту.

Мнения по поводу картины дебютировавшего в режиссуре сценариста Ричарда Таггла разделились. Но нельзя не оценить его мастерство по созданию щекочущего нервы зрителей действия и в обыгрывании деталей, порой жестоких и близких к патологии. Можно сказать, что постановщик, как и главный герой, тоже балансирует на тонкой грани между пороком и добродетелью. Он развенчивает мир насилия и сексуальной вседозволенности, отчасти спекулируя на интересе зрителей к чему-то запретному, пограничному, скандальному. Но всё-таки Иствуд как актёр и продюсер рисковал ещё больше: примут ли поклонники подобный фильм о полицейском, который одержим собственными комплексами; одобрят ли его решение снять свою юную дочь Элисон (в момент съёмок ей ещё не было двенадцати лет) в роли заложницы сексуального маньяка? И судя по показателям посещаемости, он вновь не прогадал!
E:\INTERNET\Tightrope.1984.HDTVRip.[Volodarskiy] + [Mihalev].avi
General
Complete name : E:\INTERNET\Tightrope.1984.HDTVRip.[Volodarskiy] + [Mihalev].avi
Format : AVI
Format/Info : Audio Video Interleave
File size : 1.51 GiB
Duration : 1h 54mn
Overall bit rate : 1 894 Kbps
Writing application : VirtualDubMod 1.5.10.3 (build 2550/release)
Writing library : VirtualDubMod build 2550/release
Video #0
ID : 0
Format : MPEG-4 Visual
Format profile : Advanced Simple@L5
Format settings, BVOP : 2
Format settings, QPel : No
Format settings, GMC : No warppoints
Format settings, Matrix : Custom
Codec ID : XVID
Codec ID/Hint : XviD
Duration : 1h 54mn
Bit rate : 1 624 Kbps
Width : 704 pixels
Height : 400 pixels
Display aspect ratio : 16:9
Frame rate : 23.976 fps
Color space : YUV
Chroma subsampling : 4:2:0
Bit depth : 8 bits
Scan type : Progressive
Compression mode : Lossy
Bits/(Pixel*Frame) : 0.241
Stream size : 1.30 GiB (86%)
Writing library : XviD 65
Audio #1
ID : 1
Format : MPEG Audio
Format version : Version 1
Format profile : Layer 3
Codec ID : 55
Codec ID/Hint : MP3
Duration : 1h 54mn
Bit rate mode : Constant
Bit rate : 128 Kbps
Channel(s) : 2 channels
Sampling rate : 48.0 KHz
Compression mode : Lossy
Stream size : 105 MiB (7%)
Alignment : Aligned on interleaves
Interleave, duration : 42 ms (1.00 video frame)
Interleave, preload duration : 504 ms
Writing library : LAME3.98r
Encoding settings : -m s -V 4 -q 2 -lowpass 17 -b 128
Audio #2
ID : 2
Format : MPEG Audio
Format version : Version 1
Format profile : Layer 3
Codec ID : 55
Codec ID/Hint : MP3
Duration : 1h 54mn
Bit rate mode : Constant
Bit rate : 128 Kbps
Channel(s) : 2 channels
Sampling rate : 48.0 KHz
Compression mode : Lossy
Stream size : 105 MiB (7%)
Alignment : Aligned on interleaves
Interleave, duration : 42 ms (1.00 video frame)
Interleave, preload duration : 504 ms
Writing library : LAME3.98r
Encoding settings : -m s -V 4 -q 2 -lowpass 17 -b 128




Скачать Петля.Tightrope.(Ричард.Таггл.Richard.Tuggle).[1984.Триллер.драма.криминал.детектив.HDTVRip].[AVO].(Л.Володарский).+.[AVO].(А.Михалёв).torrent без регистрации
Золото ЗОЛОТАЯ РАЗДАЧА! СКАЧАННОЕ НЕ ЗАСЧИТЫВАЕТСЯ! Золото
Дата: Зарегистрирован   [ Тип: внутренний ] Как тут cкачать?
MAGNET ссылка
MAGNET ссылка


Скачать .torrent

16 KB

Статус: проверено DHT
Скачан: торрент - 112 раз, раздача полностью - 1 раз
Размер: 1,51 GB
Оценка:  - (Голосов: 0)
Поблагодарили: 4
Поделиться ссылкой на эту раздачу с друзьями:
В контактеFacebookОдноклассникиTwitterLivejournalМой МирLiveinternet
 

 
Показать сообщения:    


Вы не можете начинать темы
Вы не можете отвечать на сообщения
Вы не можете редактировать свои сообщения
Вы не можете удалять свои сообщения
Вы не можете голосовать в опросах
Вы не можете прикреплять файлы к сообщениям
Вы можете скачивать файлы