Loading...
Error

Скачать Трамвай "Желание" / A Streetcar Named Desire (Гленн Джордан) [1995 г., драма, экранизация, DVDRip] [AVO] (Сербин) торрент без регистрации

 
Статистика раздачи
Размер:  2,18 GB   |    Скачан:  126 раз
Сидов:  1  [  0 KB/s  ]  
 
Автор Сообщение

leon030982

[] 

Трамвай "Желание"
A Streetcar Named Desire
Год выпуска: 1995
Страна: США
Жанр: драма, экранизация
Продолжительность: 02:36:32
Перевод: Авторский одноголосый [Ю. Сербин]
Субтитры: нет
Режиссер: Гленн Джордан / Glenn Jordan
В ролях:
Джессика Лэнг, Джон Гудман, Алек Болдуин, Дайан Лэйн, Фредерик Коффин, Карлос Гомес, Джерри Хардин, Патриция Херд, Мэтт Кислар, Тина Лиффорд, Ронди Рид, Кармен Запата
Описание:
Далеко не юная, но все еще привлекательная Бланш Дюбуа приезжает в Новый Орлеан к беременной сестре Стелле, живущей с мужем Стэнли в местных трущобах. Бланш сообщает сестре, что разорена, ушла с работы и жить ей негде и не на что.
Стэнли, воплощение естественности и грубости, сразу невзлюбил её за пристрастие к алкоголю и неуместное кокетство. Вскоре у Бланш появляется поклонник и призрачная надежда на замужество, но Стэнли расстраивает их помолвку.

Дополнительно:
Телевизионная версия экранизации одноименной пьесы Теннесси Уильямса. Фильм очень редкий, в сети в нормальном качестве фактически не появлялся. Перевод Ю. Сербина специально заказан для этого релиза.За появление данного релиза благодарим lankano

IMDB: 6.7/10 (656 votes)
Кинопоиск: 7.295 (76)

Сэмпл

Качество: DVDRip
Формат: AVI
Видео кодек: XviD
Аудио кодек: АС3
Видео: 640x480 (1.33:1), 23.976 fps, XviD, ~1792 kbps avg, 0.24 bit/pixel
Аудио: 48 kHz, AC3 Dolby Digital, 2/0 (L,R) ch, ~192 kbps
General
Complete name : D:\Tramvay.Jelanie.1995.DVDRip.avi
Format : AVI
Format/Info : Audio Video Interleave
Format profile : OpenDML
File size : 2.18 GiB
Duration : 2h 36mn
Overall bit rate : 1 991 Kbps
Writing application : VirtualDubMod 1.5.10.3 (build 2550/release)
Writing library : VirtualDubMod build 2550/release
Video
ID : 0
Format : MPEG-4 Visual
Format profile : Advanced Simple@L5
Format settings, BVOP : 1
Format settings, QPel : No
Format settings, GMC : No warppoints
Format settings, Matrix : Custom
Codec ID : XVID
Codec ID/Hint : XviD
Duration : 2h 36mn
Bit rate : 1 787 Kbps
Width : 640 pixels
Height : 480 pixels
Display aspect ratio : 4:3
Frame rate : 23.976 fps
Color space : YUV
Chroma subsampling : 4:2:0
Bit depth : 8 bits
Scan type : Progressive
Compression mode : Lossy
Bits/(Pixel*Frame) : 0.243
Stream size : 1.95 GiB (90%)
Writing library : XviD 64
Audio
ID : 1
Format : AC-3
Format/Info : Audio Coding 3
Mode extension : CM (complete main)
Codec ID : 2000
Duration : 2h 36mn
Bit rate mode : Constant
Bit rate : 192 Kbps
Channel(s) : 2 channels
Channel positions : Front: L R
Sampling rate : 48.0 KHz
Bit depth : 16 bits
Compression mode : Lossy
Stream size : 215 MiB (10%)
Alignment : Split accross interleaves
Interleave, duration : 42 ms (1.00 video frame)
Interleave, preload duration : 500 ms



Скачать Трамвай."Желание".A.Streetcar.Named.Desire.(Гленн.Джордан).[1995.г.драма.экранизация.DVDRip].[AVO].(Сербин).torrent без регистрации
Золото ЗОЛОТАЯ РАЗДАЧА! СКАЧАННОЕ НЕ ЗАСЧИТЫВАЕТСЯ! Золото
Дата: Зарегистрирован   [ Тип: внутренний ] Как тут cкачать?
MAGNET ссылка
MAGNET ссылка


Скачать .torrent

11 KB

Статус: проверено DHT
Скачан: торрент - 126 раз, раздача полностью - 13 раз
Размер: 2,18 GB
Оценка:  - (Голосов: 0)
Поблагодарили: 3
Поделиться ссылкой на эту раздачу с друзьями:
В контактеFacebookОдноклассникиTwitterLivejournalМой МирLiveinternet
 

 
Показать сообщения:    


Вы не можете начинать темы
Вы не можете отвечать на сообщения
Вы не можете редактировать свои сообщения
Вы не можете удалять свои сообщения
Вы не можете голосовать в опросах
Вы не можете прикреплять файлы к сообщениям
Вы можете скачивать файлы