Loading...
Error

Скачать Специалист / The Specialist (Луис Льоса /Luis Llosa) [1994, Боевик, Триллер, BDRip] [AVO] (Кашкин "ранний перевод") торрент без регистрации

 
Статистика раздачи
Размер:  1,78 GB   |    Скачан:  129 раз
Сидов:  1  [  0 KB/s  ]  
 
Автор Сообщение

leon030982

[] 

Специалист / The Specialist


Год выпуска: 1994
Страна: США, Перу
Жанр: Боевик, Триллер
Продолжительность: 01:49:57
Перевод: Авторский (одноголосый, закадровый)[Кашкин "ранний перевод"]
Оригинальная аудиодорожка: нет
Cубтитры: нет

Режиссер: Луис Льоса /Luis Llosa

В ролях: Сильвестр Сталлоне, Шэрон Стоун, Джеймс Вудс, Род Стайгер, Эрик Робертс, Марио Эрнесто Санчез, Чейз Рэндольф, Жанна Белл, Бриттани Пейдж Боак, Тони Мунафо, Мерседес Энрикез, Йениффер Беренс

Описание: Шэрон Стоун — в роли сексапильной красотки Мэй с роковым прошлым. Она поклялась отомстить гангстерам, убившим ее родителей, и уже выбрала способ, как с ними расправиться, и нашла человека, который это сделает: внешне невозмутимый бывший эксперт — подрывник ЦРУ Рэй.



Качество видео: BDRip
Формат видео: AVI
Видео кодек: XviD
Аудио кодек: AC3
Видео: 704x400 (1.76:1), 23.976 fps, XviD build 64 ~2058 kbps avg, 0.30 bit/pixel
Аудио: 44.100 kHz, AC3 Dolby Digital, 2 ch, ~256.00 kbps avg [AVO] (Кашкин "ранний перевод")

Звуковая дорожка предоставлена Krasnovv,
Видеоряд из релиза ENG1NEER, за что им Спасибо!
Дорожка синхронизирована и наложена killermax2013. Релиз с этим переводом является эксклюзивом для пиратбит , при выкладывании на других ресурсах просьба указывать первоисточник и авторство.
• Стивену Сигалу было предложено исполнить главную роль и стать режиссером фильма. Однако, когда он потребовал за эту работу $9 млн, студия не захотела столько ему платить и вместо него пригласила Сильвестера Сталлоне.
E:\INTERNET\The Specialist.1994.BDRip.[AVO] (Kashkin).avi
General
Complete name : E:\INTERNET\The Specialist.1994.BDRip.[AVO] (Kashkin).avi
Format : AVI
Format/Info : Audio Video Interleave
File size : 1.78 GiB
Duration : 1h 49mn
Overall bit rate : 2 323 Kbps
Writing application : VirtualDubMod 1.5.10.3 (build 2550/release)
Writing library : VirtualDubMod build 2550/release

Video #0
ID : 0
Format : MPEG-4 Visual
Format profile : Advanced Simple@L5
Format settings, BVOP : 1
Format settings, QPel : No
Format settings, GMC : No warppoints
Format settings, Matrix : Custom
Codec ID : XVID
Codec ID/Hint : XviD
Duration : 1h 49mn
Bit rate : 2 058 Kbps
Width : 704 pixels
Height : 400 pixels
Display aspect ratio : 16:9
Frame rate : 23.976 fps
Color space : YUV
Chroma subsampling : 4:2:0
Bit depth : 8 bits
Scan type : Progressive
Compression mode : Lossy
Bits/(Pixel*Frame) : 0.305
Stream size : 1.58 GiB (89%)
Writing library : XviD 64
Audio #1
ID : 1
Format : AC-3
Format/Info : Audio Coding 3
Codec ID : 2000
Duration : 1h 49mn
Bit rate mode : Constant
Bit rate : 256 Kbps
Channel(s) : 2 channels
Sampling rate : 44.1 KHz
Compression mode : Lossy
Stream size : 201 MiB (11%)
Alignment : Split accross interleaves
Interleave, duration : 42 ms (1.00 video frame)
Interleave, preload duration : 500 ms




Скачать Специалист.The.Specialist.(Луис.Льоса.Luis.Llosa).[1994.Боевик.Триллер.BDRip].[AVO].(Кашкин."ранний.перевод").torrent без регистрации
Золото ЗОЛОТАЯ РАЗДАЧА! СКАЧАННОЕ НЕ ЗАСЧИТЫВАЕТСЯ! Золото
Дата: Зарегистрирован   [ Тип: внутренний ] Как тут cкачать?
MAGNET ссылка
MAGNET ссылка


Скачать .torrent

18 KB

Статус: проверено DHT
Скачан: торрент - 129 раз, раздача полностью - 2 раз
Размер: 1,78 GB
Оценка:  5 (Голосов: 3)
Поблагодарили: 4
Поделиться ссылкой на эту раздачу с друзьями:
В контактеFacebookОдноклассникиTwitterLivejournalМой МирLiveinternet
 

 
Показать сообщения:    


Вы не можете начинать темы
Вы не можете отвечать на сообщения
Вы не можете редактировать свои сообщения
Вы не можете удалять свои сообщения
Вы не можете голосовать в опросах
Вы не можете прикреплять файлы к сообщениям
Вы можете скачивать файлы