Loading...
Error

Скачать Мотив / Motive [01x01-04 из 13] (Дэвид Фрэйзи) [2013, триллер, драма, криминал, детектив WEB-DL] [720p] [VO] торрент без регистрации

 
Статистика раздачи
Размер:  5,56 GB   |    Скачан:  121 раз
Сидов:  1  [  0 KB/s  ]  
 
Автор Сообщение

МихаНЕзатор

[] 

Информация о фильме
Название: Мотив
Оригинальное название: Motive
Год выхода: 2013
Жанр: триллер, драма, криминал, детектив
Режиссер: Дэвид Фрэйзи

В ролях: Кристин Леман, Луис Феррейра, Брендан Пенни, Роджер Р. Кросс, Лорен Холли, Камерон Брайт

О фильме:
Каждый эпизод начинается с раскрытия не только личности жертвы, но и убийцы. Энергичный Ванкуверский детектив отдела убийств Энджи Флинн, соединяя кусочки головоломки, руководствуется не вопросом "Кто это сделал?", а вопросом "Зачем?". Что общего у жертвы и убийцы? Каков мотив?

Страна: Канада
Студия: Foundation Features, Motive1 Productions
Продолжительность: 4 x ~ 00:42:00
Перевод: Любительский одноголосый закадровый (Apofys)

Файл
Кодек: MPEG-4 AVC
Качество: WEB-DL 720p
Видео: ~ 4005 Кбит/с, 1280x720, 23.976 кадр/с
Звук:
Русский (MP3, 2 ch, 192 Кбит/с)
Английский (AC3, 6 ch, 384 Кбит/с)

Общее
Уникальный идентификатор: 191019018948324347845509691610676252918 (0x8FB4ECC33B695596B000CB77734ED0F6)
Полное имя: D:Мои СериалыМотивMotive_S01_720p_rusMotive.S01E01.720p.rus.apofys.mkv
Формат: Matroska
Версия формата: Version 2
Размер файла: 1,41 Гбайт
Продолжительность: 43 м.
Общий поток: 4674 Кбит/сек
Дата кодирования: UTC 2013-07-10 23:20:10
Программа кодирования: mkvmerge v4.5.0 ('Speed of Light') сборка от Feb 6 2011 12:51:39
Библиотека кодирования: libebml v1.2.0 + libmatroska v1.1.0
Видео
Идентификатор: 1
Формат: AVC
Формат/Информация: Advanced Video Codec
Профиль формата: High@L3.1
Параметр CABAC формата: Нет
Параметр ReFrames формата: 2 кадра
Идентификатор кодека: V_MPEG4/ISO/AVC
Продолжительность: 43 м.
Битрейт: 4005 Кбит/сек
Ширина: 1280 пикселей
Высота: 720 пикселей
Соотношение сторон: 16:9
Режим частоты кадров: Постоянный
Частота кадров: 23,976 кадра/сек
Цветовое пространство: YUV
Субдискретизация насыщенности: 4:2:0
Битовая глубина: 8 бит
Тип развёртки: Прогрессивная
Бит/(Пиксели*Кадры): 0.181
Размер потока: 1,21 Гбайт (86%)
Язык: English
Default: Да
Forced: Нет
Основные цвета: BT.709
Характеристики трансфера: BT.709
Коэффициенты матрицы: BT.709
Аудио #1
Идентификатор: 2
Формат: AC-3
Формат/Информация: Audio Coding 3
Расширение режима: CM (complete main)
Параметр Endianness формата: Big
Идентификатор кодека: A_AC3
Продолжительность: 43 м.
Вид битрейта: Постоянный
Битрейт: 192 Кбит/сек
Каналы: 2 канала
Расположение каналов: Front: L R
Частота: 48,0 КГц
Битовая глубина: 16 бит
Метод сжатия: С потерями
Размер потока: 59,3 Мбайт (4%)
Язык: Russian
Default: Да
Forced: Нет
Аудио #2
Идентификатор: 3
Формат: AC-3
Формат/Информация: Audio Coding 3
Расширение режима: CM (complete main)
Параметр Endianness формата: Big
Идентификатор кодека: A_AC3
Продолжительность: 43 м.
Вид битрейта: Постоянный
Битрейт: 384 Кбит/сек
Каналы: 6 каналов
Расположение каналов: Front: L C R, Side: L R, LFE
Частота: 48,0 КГц
Битовая глубина: 16 бит
Метод сжатия: С потерями
Размер потока: 119 Мбайт (8%)
Язык: English
Default: Нет
Forced: Нет

01. Creeping Tom - Невидимка Том
02. Crimes of Passion - Преступления страсти
03. Pushover - Пустяковое дельце



Скачать Мотив.Motive.[01x01-04.из.13].(Дэвид.Фрэйзи).[2013.триллер.драма.криминал.детектив.WEB-DL].[720p].[VO].torrent без регистрации
Золото ЗОЛОТАЯ РАЗДАЧА! СКАЧАННОЕ НЕ ЗАСЧИТЫВАЕТСЯ! Золото
Дата: Зарегистрирован   [ Тип: внутренний ] Как тут cкачать?
MAGNET ссылка
MAGNET ссылка


Скачать .torrent

15 KB

Статус: проверено DHT
Скачан: торрент - 121 раз, раздача полностью - 2 раз
Размер: 5,56 GB
Оценка:  - (Голосов: 0)
Поблагодарили: 0
Поделиться ссылкой на эту раздачу с друзьями:
В контактеFacebookОдноклассникиTwitterLivejournalМой МирLiveinternet
 

 
Показать сообщения:    


Вы не можете начинать темы
Вы не можете отвечать на сообщения
Вы не можете редактировать свои сообщения
Вы не можете удалять свои сообщения
Вы не можете голосовать в опросах
Вы не можете прикреплять файлы к сообщениям
Вы можете скачивать файлы