Loading...
Error

Скачать Низкое зимнее солнце / Low Winter Sun (Эйдриан Шерголд / Adrian Shergold) [2006, драма, криминал, триллер, DVDRip] [VO] (Студия "Райдо") торрент без регистрации

 
Статистика раздачи
Размер:  1,46 GB   |    Скачан:  114 раз
Сидов:  1  [  0 KB/s  ]  
 
Автор Сообщение

leon030982

[] 

Низкое зимнее солнце / Low Winter Sun

Год выпуска: 2006
Страна: Великобритания, США
Жанр: драма, криминал, триллер
Продолжительность: 02:01:32
Перевод: Одноголосный (закадровый) [Студия "Райдо" / Сергей Калугин]
Cубтитры: нет

Режиссер: Эйдриан Шерголд / Adrian Shergold

В ролях: Марк Стронг, Брайан МакКарди, Фиона Белл, Пол Донелли, Мишель Дункан, Берн, Горман, Мерседес Гроуэр, Пол Хиггинс и др.

Описание: Детективный нуар о работе шотландской полиции. Два полицейских детектива Эдинбурга убивают третьего, и обставляют всё так, словно тот совершил самоубийство. Труп сажают за руль автомобиля, который сбрасывают с пирса. И всё бы ничего, если бы при подъёме этой машины не нашли два трупа! Второй оказался в багажнике с отрубленными руками и без головы... Для чего полицейским понадобилось убивать коллегу, и как они теперь выкрутятся?




Ограничение по возрасту до 15 лет, но я бы поставил, как минимум 18+
В фильме присутствуют натуралистичные сцены, сцены насилия и ненормативная лексика!


Перевод на русский язык: Юлии Вака и Евгении Орловой

Качество видео: DVDRip
Формат видео: AVI
Видео кодек: XviD
Аудио кодек: MP3
Видео: 720x416 (1.73:1), 25 fps, XviD build 50 ~1519 kbps avg, 0.20 bit/pixel
Аудио: 48 kHz, MPEG Layer 3, 2 ch, ~192.00 kbps avg
Общее
Полное имя : G:\torrents\Low Winter Sun\Low Winter Sun.avi
Формат : AVI
Формат/Информация : Audio Video Interleave
Размер файла : 1,46 Гбайт
Продолжительность : 2 ч. 1 м.
Общий поток : 1721 Кбит/сек
Программа кодирования : VirtualDubMod 1.5.10.2 (build 2540/release)
Библиотека кодирования : VirtualDubMod build 2540/release
Видео
Идентификатор : 0
Формат : MPEG-4 Visual
Профиль формата : Advanced Simple@L5
Параметр BVOP формата : 1
Параметр QPel формата : Нет
Параметр GMC формата : Без точки перехода
Параметр матрицы формата : Выборочная
Идентификатор кодека : XVID
Идентификатор кодека/Подсказка : XviD
Продолжительность : 2 ч. 1 м.
Битрейт : 1519 Кбит/сек
Ширина : 720 пикселей
Высота : 416 пикселей
Соотношение сторон : 1,731
Частота кадров : 25,000 кадров/сек
Цветовое пространство : YUV
Субдискретизация насыщенности : 4:2:0
Битовая глубина : 8 бит
Тип развёртки : Прогрессивная
Метод сжатия : С потерями
Бит/(Пиксели*Кадры) : 0.203
Размер потока : 1,29 Гбайт (88%)
Библиотека кодирования : XviD 1.2.1 (UTC 2008-12-04)
Аудио
Идентификатор : 1
Формат : MPEG Audio
Версия формата : Version 1
Профиль формата : Layer 3
Режим : Joint stereo
Идентификатор кодека : 55
Идентификатор кодека/Подсказка : MP3
Продолжительность : 2 ч. 1 м.
Вид битрейта : Постоянный
Битрейт : 192 Кбит/сек
Каналы : 2 канала
Частота : 48,0 КГц
Метод сжатия : С потерями
Размер потока : 167 Мбайт (11%)
Выравнивание : Соединение по промежуткам
Продолжительность промежутка : 40 мс. (1,00 видеокадр)
Время предзагрузки промежутка : 504 мс.
Язык : Russian



Скачать Низкое.зимнее.солнце.Low.Winter.Sun.(Эйдриан.Шерголд.Adrian.Shergold).[2006.драма.криминал.триллер.DVDRip].[VO].(Студия."Райдо").torrent без регистрации
Золото ЗОЛОТАЯ РАЗДАЧА! СКАЧАННОЕ НЕ ЗАСЧИТЫВАЕТСЯ! Золото
Дата: Зарегистрирован   [ Тип: внутренний ] Как тут cкачать?
MAGNET ссылка
MAGNET ссылка


Скачать .torrent

15 KB

Статус: проверено DHT
Скачан: торрент - 114 раз, раздача полностью - 38 раз
Размер: 1,46 GB
Оценка:  - (Голосов: 0)
Поблагодарили: 2
Поделиться ссылкой на эту раздачу с друзьями:
В контактеFacebookОдноклассникиTwitterLivejournalМой МирLiveinternet
 

 

leon030982

[] 

С данного фильма американцы недавно сделали ремейк и растянули на сериал ag Низкое зимнее солнце / Low Winter Sun
 
Показать сообщения:    


Вы не можете начинать темы
Вы не можете отвечать на сообщения
Вы не можете редактировать свои сообщения
Вы не можете удалять свои сообщения
Вы не можете голосовать в опросах
Вы не можете прикреплять файлы к сообщениям
Вы можете скачивать файлы