Loading...
Error

Скачать Остаться в Живых (Сезон 6, "Новый лидер" и др. бонусы) / Lost (Season 6, "The New Man In Charge" & other Bonus) / (Джек Бендер) [2010, приключения, мистика, драма, BDRip] rus sub торрент без регистрации

 
Статистика раздачи
Размер:  1,59 GB   |    Скачан:  364 раза
Сидов:  1  [  0 KB/s  ]  
 
Автор Сообщение

Shara

[] 


Остаться в Живых / Lost / Сезон 6, "Новый лидер" и Бонусы (BDRip HQ)

Год выпуска: 2010
Страна: США
Жанр: приключения, мистика, драма
Продолжительность: 1:40:50
Перевод: оригинал
Русские субтитры: есть
Субтитры: русские, английские

Режиссёр: Джек Бендер

В ролях: Мэтью Фокс, Эванджилин Лили, Доминик Монаган, Гарольд Перрино-мл., Хорхе Гарсиа, Малкольм Дэвид Келли, Фредерик Ленн, Джон Диксон, Майкл Артур, Нэвин Эндрюс и др.

Описание: Дополнительные материалы к заключительному сезону сериала. Сюжеты о том как снимался сериал. Размышления и комментарии создателей, актеров, режиссера и сценаристов. Сюжеты о трюках, смешные дубли и т. п. Также в раздаче последняя серия сериала - "Новый лидер", которая на показывалась по ТВ, а вышла только на дисках.

Доп. информация: Перевод субтитрами. Источник субтитров: лицензионный DVD

The New Man In Charge / Новый Лидер
Crafting A Final Season / Создание заключительного сезона
A Hero's Journey / Путешествие героя
See You In Another Life, Brotha / Увидимся в следующей жизни
Lost On Location / Места съемок
Bloopers / Смешные дубли
Изготовление рипа и подготовка релиза
- CEZAR ©


Источник: LOST - The Complete Sixth Season - Blu-ray Disc 5
Качество: BDRip
Формат: AVI
Видео кодек: XviD
Аудио кодек: AC3
Видео: 720х400, ~1894 kbps, 29.970 fps, 0.219 bits/pixel
Аудио: 48000 Hz, DD 2.0 (L, R), 320 kbps


General
Complete name : H:\torrent\LOST\Season6\Season6_Addons_BDrip_xVid\LOST.S06.Crafting_A_Final_Season.BDRip.CEZAR.avi
Format : AVI
Format/Info : Audio Video Interleave
File size : 614 MiB
Duration : 38mn 33s
Overall bit rate : 2 225 Kbps
Writing library : VirtualDub build 32559/release

Video
ID : 0
Format : MPEG-4 Visual
Format profile : Advanced Simple@L5
Format settings, BVOP : Yes
Format settings, QPel : No
Format settings, GMC : No warppoints
Format settings, Matrix : Custom
Codec ID : XVID
Codec ID/Hint : XviD
Duration : 38mn 33s
Bit rate : 1 894 Kbps
Width : 720 pixels
Height : 400 pixels
Display aspect ratio : 16:9
Frame rate : 29.970 fps
Color space : YUV
Chroma subsampling : 4:2:0
Bit depth : 8 bits
Scan type : Progressive
Bits/(Pixel*Frame) : 0.219
Stream size : 522 MiB (85%)
Writing library : XviD 1.2.1 (UTC 2008-12-04)

Audio
ID : 1
Format : AC-3
Format/Info : Audio Coding 3
Mode extension : CM (complete main)
Codec ID : 2000
Duration : 38mn 33s
Bit rate mode : Constant
Bit rate : 320 Kbps
Channel(s) : 2 channels
Channel positions : Front: L R
Sampling rate : 48.0 KHz
Bit depth : 16 bits
Stream size : 88.2 MiB (14%)
Alignment : Aligned on interleaves
Interleave, duration : 33 ms (1.00 video frame)
Interleave, preload duration : 512 ms



Скачать Остаться.в.Живых.(Сезон.6."Новый.лидер".и.др.бонусы).Lost.(Season.6."The.New.Man.In.Charge".&.other.Bonus).(Джек.Бендер).[2010.приключения.мистика.драма.BDRip].rus.sub.torrent без регистрации
Золото ЗОЛОТАЯ РАЗДАЧА! СКАЧАННОЕ НЕ ЗАСЧИТЫВАЕТСЯ! Золото
Дата: Зарегистрирован   [ Тип: внутренний ] Как тут cкачать?
MAGNET ссылка
MAGNET ссылка


Скачать .torrent

18 KB

Статус: проверено DHT
Скачан: торрент - 364 раз, раздача полностью - 240 раз
Размер: 1,59 GB
Оценка:  - (Голосов: 0)
Поблагодарили: 0
Поделиться ссылкой на эту раздачу с друзьями:
В контактеFacebookОдноклассникиTwitterLivejournalМой МирLiveinternet
 

 
Показать сообщения:    


Вы не можете начинать темы
Вы не можете отвечать на сообщения
Вы не можете редактировать свои сообщения
Вы не можете удалять свои сообщения
Вы не можете голосовать в опросах
Вы не можете прикреплять файлы к сообщениям
Вы можете скачивать файлы