Loading...
Error

Скачать Танго и Кэш / Tango & Cash (Андрей Кончаловский, Альберт Магноли) [1989, боевик, комедия, криминал, BDRip-AVC] [Dub] торрент без регистрации

 
Статистика раздачи
Размер:  1,45 GB   |    Скачан:  120 раз
Сидов:  1  [  0 KB/s  ]  
 
Автор Сообщение

Marsianka

[] 

Название: Танго и Кэш
Оригинальное название: Tango & Cash
Год выпуска: 1989
Страна: США
Жанр: боевик, комедия, криминал
Продолжительность: 01:43:46
Перевод: Дублированный

Режиссер: Андрей Кончаловский, Альберт Магноли

В ролях: Сильвестр Сталлоне, Курт Рассел, Тери Хэтчер, Джек Пэланс, Брайон Джеймс, Джеймс Хонг, Marc Alaimo, Филип Тан, Майкл Дж. Поллард, Роберт, Льюис Аркетт, Эдвард Банкер, Лесли Моррис, Roy Brocksmith, Susan Krebs, Дэвид Бирд, Ричард Фэнси, Джерри Мартинез, Майкл Джетер, Бинг Расселл, Альфонсе Уолтер

Описание:
Герои фильма друзья полицейские: Танго и Кэш. Эти соперничающие друг с другом напарники обладают одной общей чертой: каждый думает, что он самый лучший, и каждый имеет бесспорные доказательства этого.



Качество: BDRip-AVC
Формат: MKV
Видео кодек: H264
Аудио кодек: AC3
Видео: 1024x432, 23.976 fps, x.264, L4.1, ~ 1612 Kbps
Аудио: Русский: 48 kHz, AC3, 3/2 (L,C,R,l,r) + LFE ch, ~384 kbps [Дубляж]
Субтитры: Нет

General
Unique ID : 212089992588952874445888373718060229316 (0x9F8F0BF8AC31237A855FEA0A33D9E2C4)
Complete name : C:Tango.i.Kesh.1989.BDRip.mkv
Format : Matroska
Format version : Version 2
File size : 1.45 GiB
Duration : 1h 43mn
Overall bit rate mode : Variable
Overall bit rate : 1 997 Kbps
Encoded date : UTC 2012-03-29 16:49:18
Writing application : mkvmerge v5.2.1 ('A Far Off Place') built on Jan 2 2012 23:21:10
Writing library : libebml v1.2.3 + libmatroska v1.3.0

Video
ID : 1
Format : AVC
Format/Info : Advanced Video Codec
Format profile : High@L4.1
Format settings, CABAC : Yes
Format settings, ReFrames : 3 frames
Muxing mode : Header stripping
Codec ID : V_MPEG4/ISO/AVC
Duration : 1h 43mn
Bit rate mode : Variable
Bit rate : 1 612 Kbps
Maximum bit rate : 40.0 Mbps
Width : 1 024 pixels
Height : 432 pixels
Display aspect ratio : 2.40:1
Original display aspect ratio : 2.40:1
Frame rate : 23.976 fps
Color space : YUV
Chroma subsampling : 4:2:0
Bit depth : 8 bits
Scan type : Progressive
Bits/(Pixel*Frame) : 0.152
Stream size : 1.14 GiB (79%)
Writing library : x264 core 120 r2164 da19765
Encoding settings : cabac=1 / ref=4 / deblock=1:0:0 / analyse=0x3:0x113 / me=hex / subme=7 / psy=1 / psy_rd=1.00:0.00 / mixed_ref=1 / me_range=16 / chroma_me=1 / trellis=0 / 8x8dct=1 / cqm=0 / deadzone=21,11 / fast_pskip=1 / chroma_qp_offset=-2 / threads=12 / sliced_threads=0 / slices=4 / nr=0 / decimate=1 / interlaced=0 / bluray_compat=0 / constrained_intra=0 / bframes=3 / b_pyramid=1 / b_adapt=1 / b_bias=0 / direct=1 / weightb=1 / open_gop=0 / weightp=2 / keyint=23 / keyint_min=1 / scenecut=40 / intra_refresh=0 / rc_lookahead=23 / rc=2pass / mbtree=1 / bitrate=1612 / ratetol=1.0 / qcomp=0.60 / qpmin=10 / qpmax=51 / qpstep=4 / cplxblur=20.0 / qblur=0.5 / vbv_maxrate=40000 / vbv_bufsize=30000 / nal_hrd=vbr / ip_ratio=1.40 / aq=1:1.00
Language : Russian
Default : Yes
Forced : No

Audio
ID : 2
Format : AC-3
Format/Info : Audio Coding 3
Mode extension : CM (complete main)
Muxing mode : Header stripping
Codec ID : A_AC3
Duration : 1h 43mn
Bit rate mode : Constant
Bit rate : 384 Kbps
Channel(s) : 6 channels
Channel positions : Front: L C R, Side: L R, LFE
Sampling rate : 48.0 KHz
Bit depth : 16 bits
Compression mode : Lossy
Stream size : 285 MiB (19%)
Language : Russian
Default : Yes
Forced : No










Скачать Танго.и.Кэш.Tango.&.Cash.(Андрей.Кончаловский.Альберт.Магноли).[1989.боевик.комедия.криминал.BDRip-AVC].[Dub].torrent без регистрации
Золото ЗОЛОТАЯ РАЗДАЧА! СКАЧАННОЕ НЕ ЗАСЧИТЫВАЕТСЯ! Золото
Дата: Зарегистрирован   [ Тип: внутренний ] Как тут cкачать?
MAGNET ссылка
MAGNET ссылка


Скачать .torrent

15 KB

Статус: проверено DHT
Скачан: торрент - 120 раз, раздача полностью - 46 раз
Размер: 1,45 GB
Оценка:  5 (Голосов: 1)
Поблагодарили: 2
Поделиться ссылкой на эту раздачу с друзьями:
В контактеFacebookОдноклассникиTwitterLivejournalМой МирLiveinternet
 

 
Показать сообщения:    


Вы не можете начинать темы
Вы не можете отвечать на сообщения
Вы не можете редактировать свои сообщения
Вы не можете удалять свои сообщения
Вы не можете голосовать в опросах
Вы не можете прикреплять файлы к сообщениям
Вы можете скачивать файлы