Loading...
Error

Скачать Шайтан / Sheitan (Ким Шапирон) [2006, черная комедия, ужасы, триллер, DVDRip-AVC] [Dub]+[Sub] торрент без регистрации

 
Статистика раздачи
Размер:  2,11 GB   |    Скачан:  130 раз

Полного источника не было: 25 минут

 
Автор Сообщение

Marsianka

[] 

Информация о фильме
Название: Шайтан
Оригинальное название: Sheitan
Год выхода: 2006
Жанр: черная комедия, ужасы, триллер
Режиссер: Ким Шапирон / Kim Shapiron
В ролях: Венсан Кассель("Доберман", "Необратимость", "Братство волка"), Оливье Бартелеми, Жюйом Баке, Роксана Мескуида и др.

О фильме:
Неподалеку от города есть места, где легко может заблудиться городской человек. И где в заброшенном доме дремлет Зло из полузабытых старинных легенд, терпеливо поджидая очередную жертву. Соблазненные улыбками красоток из ночного клуба, друзья Барт, Ладж, Таи и Ясмин уходят с непонравившейся вечеринки. Кокетливая Ева приглашает всех поехать с ней и продолжить веселиться. Герои фильма принимают приглашение совершить прогулку загород, не подозревая, что она окажется путешествием в Ад. Ребята попадают в кровавую историю, оказавшись в руках сумасшедшего садовника.


Страна: Франция
Студия: 120 Films, La Chauve Souris, StudioCanal
Продолжительность: 01:27:38
Перевод: Профессиональный (полное дублирование)

Файл
Кодек: h.264
Качество: DVDRip-AVC
Видео: 704x544 (1.85:1) @ 1006x544 (анаморф), 25.000 fps, AVC, ~2554 Kbps, 0.267 bits/pixel
Звук:
Русский, 48.0 KHz, AC3, 6 ch, 448 Kbps
Французский, 48.0 KHz, AC3, 6 ch, 448 Kbps
Субтитры: Русские, VobSub

Источник - R7 SUPERBIT хорошего качества.
Общее
Уникальный идентификатор : 180767674063086856582154544929945943507 (0x87FE966FF00A3D36B17FDB9E259BFDD3)
Полное имя : D:FilmsShaitan.2006.DVDRip-AVC.mkv
Формат : Matroska
Версия формата : Version 4 / Version 2
Размер файла : 2,11 Гбайт
Продолжительность : 1 ч. 27 м.
Общий поток : 3452 Кбит/сек
Дата кодирования : UTC 2013-08-19 17:47:30
Программа кодирования : mkvmerge v6.2.0 ('Promised Land') built on Apr 28 2013 12:22:01
Библиотека кодирования : libebml v1.3.0 + libmatroska v1.4.0

Видео
Идентификатор : 1
Формат : AVC
Формат/Информация : Advanced Video Codec
Профиль формата : High@L4.1
Параметр CABAC формата : Да
Параметр ReFrames формата : 16 кадров
Идентификатор кодека : V_MPEG4/ISO/AVC
Продолжительность : 1 ч. 27 м.
Битрейт : 2554 Кбит/сек
Ширина : 704 пикселя
Высота : 544 пикселя
Соотношение сторон : 1,85:1
Соотношение сторон в оригинале : 1,85:1
Режим частоты кадров : Постоянный
Частота кадров : 25,000 кадров/сек
Цветовое пространство : YUV
Субдискретизация насыщенности : 4:2:0
Битовая глубина : 8 бит
Тип развёртки : Прогрессивная
Бит/(Пиксели*Кадры) : 0.267
Размер потока : 1,52 Гбайт (72%)
Библиотека кодирования : x264 core 133 r2334 a3ac64b
Настройки программы : cabac=1 / ref=16 / deblock=1:0:0 / analyse=0x3:0x133 / me=umh / subme=10 / psy=1 / psy_rd=1.05:0.10 / mixed_ref=1 / me_range=32 / chroma_me=1 / trellis=2 / 8x8dct=1 / cqm=0 / deadzone=21,11 / fast_pskip=0 / chroma_qp_offset=-3 / threads=8 / lookahead_threads=2 / sliced_threads=0 / nr=0 / decimate=0 / interlaced=0 / bluray_compat=0 / constrained_intra=0 / bframes=11 / b_pyramid=2 / b_adapt=2 / b_bias=0 / direct=3 / weightb=1 / open_gop=0 / weightp=2 / keyint=250 / keyint_min=25 / scenecut=40 / intra_refresh=0 / rc_lookahead=60 / rc=2pass / mbtree=0 / bitrate=2554 / ratetol=1.0 / qcomp=0.60 / qpmin=0 / qpmax=60 / qpstep=4 / cplxblur=20.0 / qblur=0.5 / vbv_maxrate=50000 / vbv_bufsize=62500 / nal_hrd=none / ip_ratio=1.40 / pb_ratio=1.30 / aq=1:1.00
Default : Нет
Forced : Нет
Коэффициенты матрицы : BT.601

Аудио #1
Идентификатор : 2
Формат : AC-3
Формат/Информация : Audio Coding 3
Расширение режима : CM (complete main)
Параметр Endianness формата : Big
Идентификатор кодека : A_AC3
Продолжительность : 1 ч. 27 м.
Вид битрейта : Постоянный
Битрейт : 448 Кбит/сек
Каналы : 6 каналов
Расположение каналов : Front: L C R, Side: L R, LFE
Частота : 48,0 КГц
Битовая глубина : 16 бит
Метод сжатия : С потерями
Задержка видео : 320 мс.
Размер потока : 281 Мбайт (13%)
Язык : Russian
Default : Да
Forced : Нет

Аудио #2
Идентификатор : 3
Формат : AC-3
Формат/Информация : Audio Coding 3
Расширение режима : CM (complete main)
Параметр Endianness формата : Big
Идентификатор кодека : A_AC3
Продолжительность : 1 ч. 27 м.
Вид битрейта : Постоянный
Битрейт : 448 Кбит/сек
Каналы : 6 каналов
Расположение каналов : Front: L C R, Side: L R, LFE
Частота : 48,0 КГц
Битовая глубина : 16 бит
Метод сжатия : С потерями
Задержка видео : 320 мс.
Размер потока : 281 Мбайт (13%)
Язык : French
Default : Нет
Forced : Нет

Текст
Идентификатор : 4
Формат : VobSub
Режим смешивания : zlib
Идентификатор кодека : S_VOBSUB
Идентификатор кодека/Информация : The same subtitle format used on DVDs
Язык : Russian
Default : Нет
Forced : Нет

Меню
00:00:00.000 : en:Chapter 01
00:07:25.440 : en:Chapter 02
00:14:32.640 : en:Chapter 03
00:20:38.640 : en:Chapter 04
00:28:27.240 : en:Chapter 05
00:40:36.240 : en:Chapter 06
00:49:37.440 : en:Chapter 07
01:02:59.040 : en:Chapter 08
01:06:36.240 : en:Chapter 09
01:15:24.840 : en:Chapter 10
01:18:51.240 : en:Chapter 11
01:23:11.640 : en:Chapter 12
01:27:37.880 : en:Chapter 13
frame I:768 Avg QP:13.89 size: 61820
frame P:36972 Avg QP:16.81 size: 24700
frame B:93719 Avg QP:18.35 size: 7656
Релиз от: Temperest



Скачать Шайтан.Sheitan.(Ким.Шапирон).[2006.черная.комедия.ужасы.триллер.DVDRip-AVC].[Dub]+[Sub].torrent без регистрации
Золото ЗОЛОТАЯ РАЗДАЧА! СКАЧАННОЕ НЕ ЗАСЧИТЫВАЕТСЯ! Золото
Дата: Зарегистрирован   [ Тип: внутренний ] Как тут cкачать?
MAGNET ссылка
MAGNET ссылка


Скачать .torrent

11 KB

Статус: проверено DHT
Скачан: торрент - 130 раз, раздача полностью - 57 раз
Размер: 2,11 GB
Оценка:  5 (Голосов: 1)
Поблагодарили: 3
Поделиться ссылкой на эту раздачу с друзьями:
В контактеFacebookОдноклассникиTwitterLivejournalМой МирLiveinternet
 

 
Показать сообщения:    


Вы не можете начинать темы
Вы не можете отвечать на сообщения
Вы не можете редактировать свои сообщения
Вы не можете удалять свои сообщения
Вы не можете голосовать в опросах
Вы не можете прикреплять файлы к сообщениям
Вы можете скачивать файлы