Loading...
Error

Скачать Проспект Бразилии / Avenida Brasil (51-157 из 160) (Рикардо Ваддингтон и др.) [2012, драма, комедия, детектив, HDTVRip] [DVO] торрент без регистрации

 
Статистика раздачи
Размер:  70,25 GB   |    Скачан:  256 раз
Сидов:  1  [  0 KB/s  ]  
 
Автор Сообщение

МихаНЕзатор

[] 

Год выпуска: 2012
Страна: Бразилия
Производство: Central Globo de Produ—“o & Rede Globo de Televis“o
Жанр: драма, комедия, детектив
Серии (количество): 051 (057) / 160 (179)
Продолжительность: 00:40:00 / серия
Перевод: Любительский двухголосый (Ната Антонова и MYDIMKA)
Субтитры: Отсутствуют

Режиссёр: Рикардо Ваддингтон (Ricardo Waddington), Андре Камара, Густаво Фернандес, Паоло Сильвестрини, Амора Маутнер.

В ролях: Дебора Фалабелла, Адриана Эстевес, Мурило Бенисио, Кайя Реймонд, Элоиза Периссе, Марселлу Новаес, Вера Ольц, Жозе де Абреу, Элиане Жардини, Маркос Карузо, Летисия Иснард, Изис Вальверде, Бьянка Компрату, Отавио Аугусто, Паула Бурламаки, Айлтон Граса, Алешандре Боржес, Каролина Ферраз, Дебора Блок, Камила Моргаду, Тьяго Мартинс и другие.

Описание: Женезио одинокий вдовец и отец маленькой девочки по имени Рита, женится на простой девушке Карминии, считая, что она как никто лучше сможет заменить мать девочке. Сама же скрывает за своей приятной улыбкой и добрыми намерениями свою подлую сущность коварной особы. Она при поддержке Макса убирает со своего пути мужа, и после его трагической смерти понимает что единственным наследником старика осталась Рита. Карминия выгоняет свою падчерицу на свалку.



Доп. информация: Релиз -

Внимание!
Озвучку доводим до ума.
Критика приветствуется. Но в адекватном и конструктивном виде.
Прежде чем качать - смотри семпл.

Качество: HDTVRip
Контейнер: AVI
Видео кодек: XVID
Аудио кодек: MP3
Видео: 720x400 (16:9) 29.000 fps 1 548 Kbps, 0.179 bit/pixel
Аудио: MPEG Audio 48000Hz stereo 192 Кбит/сек

21.02.2014 г. торент обновлён, добавлена 147-157 серия!

General
Complete name : D:ВыкладкаПроспект Бразилии ( Avenida Brasil) - C 051 (057) cерии (2012, Драма, Детектив, Комедия, HDTVRip) (ОЗВУЧКА MYDIMKA)57 серия (MYDIMKA RUS).avi
Format : AVI
Format/Info : Audio Video Interleave
File size : 389 MiB
Duration : 31mn 2s
Overall bit rate : 1 752 Kbps
Writing application : VirtualDubMod 1.5.10.3 | (build 2550/release)
Writing library : VirtualDubMod build 2550/release

Video
ID : 0
Format : MPEG-4 Visual
Format profile : Advanced Simple@L5
Format settings, BVOP : 2
Format settings, QPel : No
Format settings, GMC : No warppoints
Format settings, Matrix : Default (H.263)
Muxing mode : Packed bitstream
Codec ID : XVID
Codec ID/Hint : XviD
Duration : 31mn 2s
Bit rate : 1 548 Kbps
Width : 720 pixels
Height : 400 pixels
Display aspect ratio : 16:9
Frame rate : 29.970 fps
Color space : YUV
Chroma subsampling : 4:2:0
Bit depth : 8 bits
Scan type : Progressive
Compression mode : Lossy
Bits/(Pixel*Frame) : 0.179
Stream size : 344 MiB (88%)
Writing library : XviD 1.2.1 (UTC 2008-12-04)

Audio
ID : 1
Format : MPEG Audio
Format version : Version 1
Format profile : Layer 3
Codec ID : 55
Codec ID/Hint : MP3
Duration : 31mn 2s
Bit rate mode : Constant
Bit rate : 192 Kbps
Channel(s) : 2 channels
Sampling rate : 48.0 KHz
Compression mode : Lossy
Stream size : 42.6 MiB (11%)
Alignment : Aligned on interleaves
Interleave, duration : 33 ms (1.00 video frame)
Interleave, preload duration : 504 ms
Writing library : LAME3.99r
Encoding settings : -m s -V 4 -q 2 -lowpass 18.6 -b 192



Скачать Проспект.Бразилии.Avenida.Brasil.(51-157.из.160).(Рикардо.Ваддингтон.и.др.).[2012.драма.комедия.детектив.HDTVRip].[DVO].torrent без регистрации
Золото ЗОЛОТАЯ РАЗДАЧА! СКАЧАННОЕ НЕ ЗАСЧИТЫВАЕТСЯ! Золото
Дата: Зарегистрирован   [ Тип: внутренний ] Как тут cкачать?
MAGNET ссылка
MAGNET ссылка


Скачать .torrent

103 KB

Статус: проверено DHT
Скачан: торрент - 256 раз, раздача полностью - 28 раз
Размер: 70,25 GB
Оценка:  5 (Голосов: 1)
Поблагодарили: 7
Поделиться ссылкой на эту раздачу с друзьями:
В контактеFacebookОдноклассникиTwitterLivejournalМой МирLiveinternet
 

 

KIT

[] 

продолжение когда будет? ab
 

МихаНЕзатор

[] 

Раздача обновлена.
 
Показать сообщения:    


Вы не можете начинать темы
Вы не можете отвечать на сообщения
Вы не можете редактировать свои сообщения
Вы не можете удалять свои сообщения
Вы не можете голосовать в опросах
Вы не можете прикреплять файлы к сообщениям
Вы можете скачивать файлы