Loading...
Error

Скачать Сверхвоины / Supah Ninjas (02x01-13) (Брайан Роббинс, Лев Л. Спиро и др.) [2013, комедия, боевик, WEB-DL] [1080p] [Dub (SDI Media)] торрент без регистрации

 
Статистика раздачи
Размер:  11,63 GB   |    Скачан:  124 раза

Полного источника не было: 24 минуты

 
Автор Сообщение

МихаНЕзатор

[] 

Информация о фильме
Название: Сверхвоины
Оригинальное название: Supah Ninjas
Год выхода: 2013
Жанр: комедия, боевик
Режиссер: Брайан Роббинс, Лев Л. Спиро, Дж. Кларк Мэтис, Алекс Уинтер, Дэйв Пэйн, Джонатан Джадж

В ролях: Райан Поттер, Карлос Найт, Грейси Дзинни. Джордж Такей, Джейк Хуанг, Трэвис Вонг, Дэйна Прайс, Даниэль Пауэлл, Рэндолл Парк, Марисса Куэвас, Джо Фишел, Джордан Николс, Джеймс Куинн, Коди Кристиан, Кристофер Рид, Виктори Ван Тейл, Роджер Бриджес, Антонио Гомес

О фильме:
Майк Фуканага думал, что самое сложное в жизни это терпеть шуточки его лучшего друга, балагура и весельчака Оуэна Рейнольдса и завоевывать сердце Аманды МакКей, в которую Майк давно и безнадежно влюблен. Но он ошибался! Майк узнает, что он происходит из древнего рода ниндзя, и что ему предстоит продолжить дело своих славных предков, сражаясь со злом во всех его проявлениях.



Страна: США
Студия: Varsity Pictures
Продолжительность: эпизод ~23 мин.
Перевод: Полное дублирование SDI Media

Файл
Кодек: MKV, H.264
Качество: WEB-DL 1080p
Видео: 1912x1072, 23.976 fps, ~5000 kbps avg, 0.102 bit/pixel
Звук:
Аудио 1: русский, AC3, 48 kHz, 2/0 (L,R) ch, 192 kbps
Аудио 2: английский, AC3, 48 kHz, 2/0 (L,R) ch, 192 kbps

Доп. информация:
Видеоряд: iTunes
Сведение русской дорожки:

15.10.2013 г. торент обновлён, добавлена 8-13 серия!
General
Format : Matroska
Format version : Version 4 / Version 2
File size : 901 MiB
Duration : 22mn 52s
Overall bit rate : 5 508 Kbps
Encoded date : UTC 2013-08-15 15:06:13
Writing application : mkvmerge v6.1.0 ('Old Devil') built on Apr 10 2013 23:17:18
Writing library : libebml v1.3.0 + libmatroska v1.4.0

Video
ID : 1
Format : AVC
Format/Info : Advanced Video Codec
Format profile : High@L4.0
Format settings, CABAC : Yes
Format settings, ReFrames : 4 frames
Codec ID : V_MPEG4/ISO/AVC
Duration : 22mn 52s
Bit rate : 5 014 Kbps
Width : 1 912 pixels
Height : 1 072 pixels
Display aspect ratio : 16:9
Frame rate mode : Constant
Frame rate : 23.976 fps
Color space : YUV
Chroma subsampling : 4:2:0
Bit depth : 8 bits
Scan type : Progressive
Bits/(Pixel*Frame) : 0.102
Stream size : 820 MiB (91%)
Language : English
Default : Yes
Forced : No
Color primaries : BT.709
Transfer characteristics : BT.709
Matrix coefficients : BT.709

Audio #1
ID : 2
Format : AC-3
Format/Info : Audio Coding 3
Mode extension : CM (complete main)
Format settings, Endianness : Big
Codec ID : A_AC3
Duration : 22mn 52s
Bit rate mode : Constant
Bit rate : 192 Kbps
Channel(s) : 2 channels
Channel positions : Front: L R
Sampling rate : 48.0 KHz
Bit depth : 16 bits
Compression mode : Lossy
Stream size : 31.4 MiB (3%)
Language : Russian
Default : Yes
Forced : Yes

Audio #2
ID : 3
Format : AC-3
Format/Info : Audio Coding 3
Mode extension : CM (complete main)
Format settings, Endianness : Big
Codec ID : A_AC3
Duration : 22mn 52s
Bit rate mode : Constant
Bit rate : 192 Kbps
Channel(s) : 2 channels
Channel positions : Front: L R
Sampling rate : 48.0 KHz
Bit depth : 16 bits
Compression mode : Lossy
Stream size : 31.4 MiB (3%)
Language : English
Default : No
Forced : No



Скачать Сверхвоины.Supah.Ninjas.(02x01-13).(Брайан.Роббинс.Лев.Л.Спиро.и.др.).[2013.комедия.боевик.WEB-DL].[1080p].[Dub.(SDI.Media)].torrent без регистрации
Золото ЗОЛОТАЯ РАЗДАЧА! СКАЧАННОЕ НЕ ЗАСЧИТЫВАЕТСЯ! Золото
Дата: Зарегистрирован   [ Тип: внутренний ] Как тут cкачать?
MAGNET ссылка
MAGNET ссылка


Скачать .torrent

235 KB

Статус: проверено DHT
Скачан: торрент - 124 раз, раздача полностью - 0 раз
Размер: 11,63 GB
Оценка:  4 (Голосов: 1)
Поблагодарили: 1
Поделиться ссылкой на эту раздачу с друзьями:
В контактеFacebookОдноклассникиTwitterLivejournalМой МирLiveinternet
 

 

МихаНЕзатор

[] 

Раздача обновлена.
 
Показать сообщения:    


Вы не можете начинать темы
Вы не можете отвечать на сообщения
Вы не можете редактировать свои сообщения
Вы не можете удалять свои сообщения
Вы не можете голосовать в опросах
Вы не можете прикреплять файлы к сообщениям
Вы можете скачивать файлы