Loading...
Error

Скачать Сверхвоины / Supah Ninjas (01x01-16, 18-25) (Брайан Роббинс, Лев Л. Спиро и др.) [2013, комедия, боевик, WEB-DL] [720p] [Dub (SDI Media)] торрент без регистрации

 
Статистика раздачи
Размер:  17,58 GB   |    Скачан:  119 раз
Сидов:  1  [  0 KB/s  ]  
 
Автор Сообщение

МихаНЕзатор

[] 

Информация о фильме
Название: Сверхвоины
Оригинальное название: Supah Ninjas
Год выхода: 2010
Жанр: комедия, боевик
Режиссер: Брайан Роббинс, Лев Л. Спиро, Дж. Кларк Мэтис, Алекс Уинтер, Дэйв Пэйн, Джонатан Джадж В ролях: Райан Поттер, Карлос Найт, Грейси Дзинни. Джордж Такей, Джейк Хуанг, Трэвис Вонг, Дэйна Прайс, Даниэль Пауэлл, Рэндолл Парк, Марисса Куэвас, Джо Фишел, Джордан Николс, Джеймс Куинн, Коди Кристиан, Кристофер Рид, Виктори Ван Тейл, Роджер Бриджес, Антонио Гомес

В ролях: Райан Поттер, Карлос Найт, Грейси Дзинни. Джордж Такей, Джейк Хуанг, Трэвис Вонг, Дэйна Прайс, Даниэль Пауэлл, Рэндолл Парк, Марисса Куэвас, Джо Фишел, Джордан Николс, Джеймс Куинн, Коди Кристиан, Кристофер Рид, Виктори Ван Тейл, Роджер Бриджес, Антонио Гомес

О фильме:
Майк Фуканага думал, что самое сложное в жизни это терпеть шуточки его лучшего друга, балагура и весельчака Оуэна Рейнольдса и завоевывать сердце Аманды МакКей, в которую Майк давно и безнадежно влюблен. Но он ошибался! Майк узнает, что он происходит из древнего рода ниндзя, и что ему предстоит продолжить дело своих славных предков, сражаясь со злом во всех его проявлениях.



Страна: США
Студия: Varsity Pictures
Продолжительность: эпизод ~23 мин.
Перевод: Полное дублирование SDI Media

Файл
Кодек: MKV, H.264
Качество: WEB-DL 720p
Видео: 1280x720, 23.976 fps, ~4000 kbps avg, 0.178 bit/pixel
Звук:
Аудио 1: русский, AC3, 48 kHz, 2/0 (L,R) ch, 192 kbps
Аудио 2: английский, AC3, 48 kHz, 2/0 (L,R) ch, 192 kbps

В 13 серии в видео на iTunes обрезана предыстория на первой минуте, имеющаяся в записях трансляций серии каналом Nickelodeon.
17 серия выпущена в двух частях для телевизионного вещания и одной сдвоенной частью на iTunes. В наличии есть только русская озвучка второй части 17 серии. Озвучку первой части серии найти не удалось ни в каком качестве. При первом же обнаружении озвучки в сети серия будет добавлена.
General
Format : Matroska
Format version : Version 4 / Version 2
File size : 759 MiB
Duration : 24mn 42s
Overall bit rate : 4 294 Kbps
Encoded date : UTC 2013-06-15 15:56:34
Writing application : mkvmerge v6.1.0 ('Old Devil') built on Apr 10 2013 23:17:18
Writing library : libebml v1.3.0 + libmatroska v1.4.0

Video
ID : 1
Format : AVC
Format/Info : Advanced Video Codec
Format profile : High@L3.1
Format settings, CABAC : No
Format settings, ReFrames : 2 frames
Format settings, GOP : N=1
Codec ID : V_MPEG4/ISO/AVC
Duration : 24mn 42s
Bit rate : 3 825 Kbps
Width : 1 280 pixels
Height : 720 pixels
Display aspect ratio : 16:9
Frame rate mode : Constant
Frame rate : 23.976 fps
Color space : YUV
Chroma subsampling : 4:2:0
Bit depth : 8 bits
Scan type : Progressive
Bits/(Pixel*Frame) : 0.173
Stream size : 676 MiB (89%)
Language : English
Default : Yes
Forced : No
Color primaries : BT.709
Transfer characteristics : BT.709
Matrix coefficients : BT.709

Audio #1
ID : 2
Format : AC-3
Format/Info : Audio Coding 3
Mode extension : CM (complete main)
Format settings, Endianness : Big
Codec ID : A_AC3
Duration : 24mn 42s
Bit rate mode : Constant
Bit rate : 192 Kbps
Channel(s) : 2 channels
Channel positions : Front: L R
Sampling rate : 48.0 KHz
Bit depth : 16 bits
Compression mode : Lossy
Stream size : 33.9 MiB (4%)
Language : Russian
Default : Yes
Forced : Yes

Audio #2
ID : 3
Format : AC-3
Format/Info : Audio Coding 3
Mode extension : CM (complete main)
Format settings, Endianness : Big
Codec ID : A_AC3
Duration : 24mn 42s
Bit rate mode : Constant
Bit rate : 192 Kbps
Channel(s) : 2 channels
Channel positions : Front: L R
Sampling rate : 48.0 KHz
Bit depth : 16 bits
Compression mode : Lossy
Stream size : 33.9 MiB (4%)
Language : English
Default : No
Forced : No



Скачать Сверхвоины.Supah.Ninjas.(01x01-16.18-25).(Брайан.Роббинс.Лев.Л.Спиро.и.др.).[2013.комедия.боевик.WEB-DL].[720p].[Dub.(SDI.Media)].torrent без регистрации
Золото ЗОЛОТАЯ РАЗДАЧА! СКАЧАННОЕ НЕ ЗАСЧИТЫВАЕТСЯ! Золото
Дата: Зарегистрирован   [ Тип: внутренний ] Как тут cкачать?
MAGNET ссылка
MAGNET ссылка


Скачать .torrent

91 KB

Статус: проверено DHT
Скачан: торрент - 119 раз, раздача полностью - 10 раз
Размер: 17,58 GB
Оценка:  5 (Голосов: 1)
Поблагодарили: 2
Поделиться ссылкой на эту раздачу с друзьями:
В контактеFacebookОдноклассникиTwitterLivejournalМой МирLiveinternet
 

 
Показать сообщения:    


Вы не можете начинать темы
Вы не можете отвечать на сообщения
Вы не можете редактировать свои сообщения
Вы не можете удалять свои сообщения
Вы не можете голосовать в опросах
Вы не можете прикреплять файлы к сообщениям
Вы можете скачивать файлы