Loading...
Error

Скачать Сверхвоины / Supah Ninjas (02x01-13) (Брайан Роббинс, Лев Л. Спиро и др.) [2013, комедия, боевик, HDRip-AVC] [Dub (SDI Media)] торрент без регистрации

 
Статистика раздачи
Размер:  3,82 GB   |    Скачан:  118 раз
Сидов:  1  [  0 KB/s  ]  
 
Автор Сообщение

МихаНЕзатор

[] 

Информация о фильме
Название: Сверхвоины
Оригинальное название: Supah Ninjas
Год выхода: 2013
Жанр: комедия, боевик
Режиссер: Брайан Роббинс, Лев Л. Спиро, Дж. Кларк Мэтис, Алекс Уинтер, Дэйв Пэйн, Джонатан Джадж
В ролях: Райан Поттер, Карлос Найт, Грейси Дзинни. Джордж Такей, Джейк Хуанг, Трэвис Вонг, Дэйна Прайс, Даниэль Пауэлл, Рэндолл Парк, Марисса Куэвас, Джо Фишел, Джордан Николс, Джеймс Куинн, Коди Кристиан, Кристофер Рид, Виктори Ван Тейл, Роджер Бриджес, Антонио Гомес

О фильме:
Майк Фуканага думал, что самое сложное в жизни это терпеть шуточки его лучшего друга, балагура и весельчака Оуэна Рейнольдса и завоевывать сердце Аманды МакКей, в которую Майк давно и безнадежно влюблен. Но он ошибался! Майк узнает, что он происходит из древнего рода ниндзя, и что ему предстоит продолжить дело своих славных предков, сражаясь со злом во всех его проявлениях.



Страна: США
Студия: Varsity Pictures
Продолжительность: эпизод ~23 мин.
Перевод: Полное дублирование SDI Media

Файл
Кодек: MKV, H.264
Качество: HDRip-AVC (источник: )
Видео: 720x400, 23.976 fps, 1435 kbps, 0.208 bit/pixel
Звук:
Аудио 1: русский, AC3, 48 kHz, 2/0 (L,R) ch, 192 kbps
Аудио 2: английский, AC3, 48 kHz, 2/0 (L,R) ch, 192 kbps

Доп. информация:
Видеоряд: iTunes

Релиз от:

17.10.2013 г. торент обновлён, добавлена 8-13 серия!
General
Format : Matroska
Format version : Version 2
File size : 299 MiB
Duration : 22mn 52s
Overall bit rate : 1 826 Kbps
Writing application : HandBrake rev5474
Writing library : libmkv 0.6.5
TITLE : Supah Ninjas s02e01 The Con Man

Video
ID : 1
Format : AVC
Format/Info : Advanced Video Codec
Format profile : High@L4.1
Format settings, CABAC : Yes
Format settings, ReFrames : 8 frames
Codec ID : V_MPEG4/ISO/AVC
Duration : 22mn 52s
Bit rate : 1 435 Kbps
Width : 720 pixels
Height : 400 pixels
Display aspect ratio : 16:9
Frame rate mode : Constant
Frame rate : 23.976 fps
Color space : YUV
Chroma subsampling : 4:2:0
Bit depth : 8 bits
Scan type : Progressive
Bits/(Pixel*Frame) : 0.208
Stream size : 230 MiB (77%)
Writing library : x264 core 130 r2273 b3065e6
Encoding settings : cabac=1 / ref=9 / deblock=1:-1:-1 / analyse=0x3:0x133 / me=umh / subme=10 / psy=1 / psy_rd=1,00:0,20 / mixed_ref=1 / me_range=24 / chroma_me=1 / trellis=2 / 8x8dct=1 / cqm=0 / deadzone=21,11 / fast_pskip=0 / chroma_qp_offset=-3 / threads=6 / lookahead_threads=1 / sliced_threads=0 / nr=0 / decimate=1 / interlaced=0 / bluray_compat=0 / constrained_intra=0 / bframes=9 / b_pyramid=1 / b_adapt=2 / b_bias=0 / direct=3 / weightb=1 / open_gop=0 / weightp=2 / keyint=240 / keyint_min=24 / scenecut=40 / intra_refresh=0 / rc=2pass / mbtree=0 / bitrate=1435 / ratetol=1,0 / qcomp=1,00 / qpmin=0 / qpmax=69 / qpstep=4 / cplxblur=20,0 / qblur=0,5 / ip_ratio=1,40 / pb_ratio=1,30 / aq=2:0,60
Language : English
Default : Yes
Forced : No
Color primaries : BT.709
Transfer characteristics : BT.709
Matrix coefficients : BT.709

Audio #1
ID : 2
Format : AC-3
Format/Info : Audio Coding 3
Mode extension : CM (complete main)
Format settings, Endianness : Big
Codec ID : A_AC3
Duration : 22mn 52s
Bit rate mode : Constant
Bit rate : 192 Kbps
Channel(s) : 2 channels
Channel positions : Front: L R
Sampling rate : 48.0 KHz
Bit depth : 16 bits
Compression mode : Lossy
Stream size : 31.4 MiB (11%)
Language : Russian
Default : Yes
Forced : No

Audio #2
ID : 3
Format : AC-3
Format/Info : Audio Coding 3
Mode extension : CM (complete main)
Format settings, Endianness : Big
Codec ID : A_AC3
Duration : 22mn 52s
Bit rate mode : Constant
Bit rate : 192 Kbps
Channel(s) : 2 channels
Channel positions : Front: L R
Sampling rate : 48.0 KHz
Bit depth : 16 bits
Compression mode : Lossy
Stream size : 31.4 MiB (11%)
Language : English
Default : No
Forced : No



Скачать Сверхвоины.Supah.Ninjas.(02x01-13).(Брайан.Роббинс.Лев.Л.Спиро.и.др.).[2013.комедия.боевик.HDRip-AVC].[Dub.(SDI.Media)].torrent без регистрации
Золото ЗОЛОТАЯ РАЗДАЧА! СКАЧАННОЕ НЕ ЗАСЧИТЫВАЕТСЯ! Золото
Дата: Зарегистрирован   [ Тип: внутренний ] Как тут cкачать?
MAGNET ссылка
MAGNET ссылка


Скачать .torrent

79 KB

Статус: проверено DHT
Скачан: торрент - 118 раз, раздача полностью - 0 раз
Размер: 3,82 GB
Оценка:  - (Голосов: 0)
Поблагодарили: 0
Поделиться ссылкой на эту раздачу с друзьями:
В контактеFacebookОдноклассникиTwitterLivejournalМой МирLiveinternet
 

 

МихаНЕзатор

[] 

Раздача обновлена.
 
Показать сообщения:    


Вы не можете начинать темы
Вы не можете отвечать на сообщения
Вы не можете редактировать свои сообщения
Вы не можете удалять свои сообщения
Вы не можете голосовать в опросах
Вы не можете прикреплять файлы к сообщениям
Вы можете скачивать файлы