Loading...
Error

Скачать Крепость / Fortress (1992) BDRip-AVC 2x[MVO]+[Dub]+[AVO (А. Гаврилов)]+[Original Eng] торрент без регистрации

 
Статистика раздачи
Размер:  2,18 GB   |    Скачан:  116 раз
Сидов:  1  [  0 KB/s  ]  
 
Автор Сообщение

МихаНЕзатор

[] 

Крепость / Fortress
(1992) BDRip-AVC


Информация о фильме
Название: Крепость
Оригинальное название: Fortress
Год выхода: 1992
Жанр: фантастика, боевик, триллер
Режиссер: Стюарт Гордон

В ролях: Кристофер Ламберт, Кертвуд Смит, Лорин Локлин, Клифтон Коллинз мл., Линкольн Килпэтрик, Джеффри Комбс, Том Таулз, Вернон Уэллс, Кэролин Пёрди-Гордон, Алан Зитнер

О фильме: 2017 год. Жизнь на Земле стала тяжела и жестока. Природные ресурсы на исходе, а население чудовищно увеличилось. Результат всего этого строгий режим и новый закон о том, что женщина может иметь только одного ребенка. После смерти первенца, Бренник и его жена Карен нарушают закон и ждут рождения второго ребенка. Их заключают в Крепость, самую изощренную тюрьму с максимальной степенью защиты, из которой еще никому не удавалось выбраться. Подвергнутый чудовищным пыткам, Бренник решает бежать любой ценой.



Страна: Австралия, США
Продолжительность: 01:35:08
Перевод: Профессиональный (многоголосый закадровый, Нева-1 ), Профессиональный (многоголосый закадровый, Амальгама), Дублированный (Хлопушка), Авторский (одноголосый закадровый, А. Гаврилов), Оригинал (Английский)

Файл
Кодек: x.264
Качество: BDRip-AVC
Видео: 960x544 (16:9), 23,976 fps, 2288 kbps, 0.183 bit/pixel
Аудио #1: 48 kHz, AC3 Dolby Digital, 2 ch, ~192.00 kbps (Многоголосый, Нева-1)
Аудио #2: 48 kHz, AC3 Dolby Digital, 2 ch, ~192.00 kbps (Многоголосый, Амальгама)
Аудио #3: 48 kHz, AC3 Dolby Digital, 2 ch, ~192.00 kbps (Дублированный, Хлопушка)
Аудио #4: 48 kHz, AC3 Dolby Digital, 2 ch, ~224.00 kbps (Авторский, А. Гаврилов)
Аудио #5: 48 kHz, AC3 Dolby Digital, 2 ch, ~192.00 kbps (Оригинал)
Субтитры: Русские, Английские (отключаемые)

&
Общее
Уникальный идентификатор : 182738574029517015667037031143791269404 (0x897A2B4ED7F2AE06A26C228A253A161C)
Полное имя : D:Fortress.1992.BDRip-AVC.mkv
Формат : Matroska
Версия формата : Version 4 / Version 2
Размер файла : 2,18 Гбайт
Продолжительность : 1 ч. 35 м.
Общий поток : 3283 Кбит/сек
Название фильма : Крепость / Fortress (1992) BDRip-AVC rip by Rulya74
Дата кодирования : UTC 2013-08-23 06:57:40
Программа кодирования : mkvmerge v6.2.0 ('Promised Land') built on Apr 28 2013 12:22:01
Библиотека кодирования : libebml v1.3.0 + libmatroska v1.4.0

Видео
Идентификатор : 1
Формат : AVC
Формат/Информация : Advanced Video Codec
Профиль формата : High@L4.1
Параметр CABAC формата : Да
Параметр ReFrames формата : 12 кадров
Идентификатор кодека : V_MPEG4/ISO/AVC
Продолжительность : 1 ч. 35 м.
Битрейт : 2288 Кбит/сек
Ширина : 960 пикселей
Высота : 544 пикселя
Соотношение сторон : 16:9
Режим частоты кадров : Постоянный
Частота кадров : 23,976 кадра/сек
Цветовое пространство : YUV
Субдискретизация насыщенности : 4:2:0
Битовая глубина : 8 бит
Тип развёртки : Прогрессивная
Бит/(Пиксели*Кадры) : 0.183
Размер потока : 1,48 Гбайт (68%)
Библиотека кодирования : x264 core 133 r2334 a3ac64b
Настройки программы : cabac=1 / ref=12 / deblock=1:-3:-3 / analyse=0x3:0x113 / me=umh / subme=10 / psy=1 / psy_rd=1.04:0.02 / mixed_ref=1 / me_range=32 / chroma_me=1 / trellis=2 / 8x8dct=1 / cqm=0 / deadzone=21,11 / fast_pskip=0 / chroma_qp_offset=-3 / threads=6 / lookahead_threads=1 / sliced_threads=0 / nr=0 / decimate=1 / interlaced=0 / bluray_compat=0 / constrained_intra=0 / bframes=8 / b_pyramid=2 / b_adapt=1 / b_bias=0 / direct=3 / weightb=1 / open_gop=0 / weightp=2 / keyint=240 / keyint_min=23 / scenecut=40 / intra_refresh=0 / rc_lookahead=40 / rc=2pass / mbtree=1 / bitrate=2288 / ratetol=1.0 / qcomp=0.60 / qpmin=0 / qpmax=69 / qpstep=4 / cplxblur=20.0 / qblur=0.5 / vbv_maxrate=62500 / vbv_bufsize=78125 / nal_hrd=none / ip_ratio=1.40 / aq=1:1.00
Default : Да
Forced : Нет

Аудио #1
Идентификатор : 2
Формат : AC-3
Формат/Информация : Audio Coding 3
Расширение режима : CM (complete main)
Параметр Endianness формата : Big
Идентификатор кодека : A_AC3
Продолжительность : 1 ч. 35 м.
Вид битрейта : Постоянный
Битрейт : 192 Кбит/сек
Каналы : 2 канала
Расположение каналов : Front: L R
Частота : 48,0 КГц
Битовая глубина : 16 бит
Метод сжатия : С потерями
Размер потока : 131 Мбайт (6%)
Заголовок : Профессиональный (многоголосый закадровый, Нева-1 )
Язык : Russian
Default : Да
Forced : Нет

Аудио #2
Идентификатор : 3
Формат : AC-3
Формат/Информация : Audio Coding 3
Расширение режима : CM (complete main)
Параметр Endianness формата : Big
Идентификатор кодека : A_AC3
Продолжительность : 1 ч. 35 м.
Вид битрейта : Постоянный
Битрейт : 192 Кбит/сек
Каналы : 2 канала
Расположение каналов : Front: L R
Частота : 48,0 КГц
Битовая глубина : 16 бит
Метод сжатия : С потерями
Размер потока : 131 Мбайт (6%)
Заголовок : Профессиональный (многоголосый закадровый, Амальгама)
Язык : Russian
Default : Нет
Forced : Нет

Аудио #3
Идентификатор : 4
Формат : AC-3
Формат/Информация : Audio Coding 3
Расширение режима : CM (complete main)
Параметр Endianness формата : Big
Идентификатор кодека : A_AC3
Продолжительность : 1 ч. 35 м.
Вид битрейта : Постоянный
Битрейт : 192 Кбит/сек
Каналы : 2 канала
Расположение каналов : Front: L R
Частота : 48,0 КГц
Битовая глубина : 16 бит
Метод сжатия : С потерями
Размер потока : 131 Мбайт (6%)
Заголовок : Дублированный
Язык : Russian
Default : Нет
Forced : Нет

Аудио #4
Идентификатор : 5
Формат : AC-3
Формат/Информация : Audio Coding 3
Расширение режима : CM (complete main)
Параметр Endianness формата : Big
Идентификатор кодека : A_AC3
Продолжительность : 1 ч. 35 м.
Вид битрейта : Постоянный
Битрейт : 224 Кбит/сек
Каналы : 2 канала
Расположение каналов : Front: L R
Частота : 48,0 КГц
Битовая глубина : 16 бит
Метод сжатия : С потерями
Размер потока : 152 Мбайт (7%)
Заголовок : Авторский (одноголосый закадровый, А. Гаврилов)
Язык : Russian
Default : Нет
Forced : Нет

Аудио #5
Идентификатор : 6
Формат : AC-3
Формат/Информация : Audio Coding 3
Расширение режима : CM (complete main)
Параметр Endianness формата : Big
Идентификатор кодека : A_AC3
Продолжительность : 1 ч. 35 м.
Вид битрейта : Постоянный
Битрейт : 192 Кбит/сек
Каналы : 2 канала
Расположение каналов : Front: L R
Частота : 48,0 КГц
Битовая глубина : 16 бит
Метод сжатия : С потерями
Размер потока : 131 Мбайт (6%)
Заголовок : Оригинал
Язык : English
Default : Нет
Forced : Нет

Текст #1
Идентификатор : 7
Формат : UTF-8
Идентификатор кодека : S_TEXT/UTF8
Идентификатор кодека/Информация : UTF-8 Plain Text
Язык : Russian
Default : Нет
Forced : Нет

Текст #2
Идентификатор : 8
Формат : UTF-8
Идентификатор кодека : S_TEXT/UTF8
Идентификатор кодека/Информация : UTF-8 Plain Text
Язык : English
Default : Нет
Forced : Нет

Меню
00:00:00.000 : en:00:00:00.000
00:06:32.015 : en:00:06:32.015
00:18:26.980 : en:00:18:26.980
00:23:36.832 : en:00:23:36.832
00:29:00.822 : en:00:29:00.822
00:36:34.483 : en:00:36:34.483
00:45:09.373 : en:00:45:09.373
00:54:06.910 : en:00:54:06.910
01:02:30.872 : en:01:02:30.872
01:10:01.155 : en:01:10:01.155
01:21:18.497 : en:01:21:18.497
01:30:32.260 : en:01:30:32.260



Скачать Крепость.Fortress.(1992).BDRip-AVC.2x[MVO]+[Dub]+[AVO.(А.Гаврилов)]+[Original.Eng].torrent без регистрации
Золото ЗОЛОТАЯ РАЗДАЧА! СКАЧАННОЕ НЕ ЗАСЧИТЫВАЕТСЯ! Золото
Дата: Зарегистрирован   [ Тип: внутренний ] Как тут cкачать?
MAGNET ссылка
MAGNET ссылка


Скачать .torrent

11 KB

Статус: проверено DHT
Скачан: торрент - 116 раз, раздача полностью - 9 раз
Размер: 2,18 GB
Оценка:  5 (Голосов: 1)
Поблагодарили: 2
Поделиться ссылкой на эту раздачу с друзьями:
В контактеFacebookОдноклассникиTwitterLivejournalМой МирLiveinternet
 

 
Показать сообщения:    


Вы не можете начинать темы
Вы не можете отвечать на сообщения
Вы не можете редактировать свои сообщения
Вы не можете удалять свои сообщения
Вы не можете голосовать в опросах
Вы не можете прикреплять файлы к сообщениям
Вы можете скачивать файлы