Loading...
Error

Скачать Патология / Pathology (2008, BDRip-AVC] [Dub]+[MVO]+[ABO (А. Дольский)] торрент без регистрации

 
Статистика раздачи
Размер:  2,18 GB   |    Скачан:  120 раз
Сидов:  1  [  0 KB/s  ]  
 
Автор Сообщение

МихаНЕзатор

[] 

Патология / Pathology
(2008) BDRip-AVC


Информация о фильме
Название: Патология
Оригинальное название: Pathology
Год выхода: 2008
Жанр: ужасы, триллер, криминал
Режиссер: Марк Шолерманн

В ролях: Майло Вентимилья, Майкл Уэстон, Алисса Милано, Лорен Ли Смит, Джонни Витуорт, Джон де Ланси, Мей Меланкон, Кейр ОДоннелл, Бадди Льюис, Дэн Каллахан

О фильме: Молодой и талантливый доктор Грей, закончив Гарвард с отличием, мечтает стать патологоанатомом. И где как не в лучшей клинике города, он может поднабраться опыта и осуществить свою мечту. Рассудив таким образом, Грей поступает в интернатуру в огромный госпиталь.

Здесь он заводит новые знакомства, благодаря которым у него появляются и новые увлечения. Например, вечерами он стал любить собираться с коллегами в морге и глумиться над трупами бомжей и наркоманов. Однако, вскоре Грей понимает, что его жизнь и он сам изменились не в лучшую сторону. Но осознав свое нежелание участвовать в проказах своих новоиспеченных товарищей, он вскоре понял, что на месте «неизвестного трупа» в морге может оказаться он сам.



Страна: США
Продолжительность: 01:34:49
Перевод: Дублированный, Профессиональный (двухголосый закадровый, Супербит), Авторский (одноголосый закадровый, А. Дольский), Оригинал (Английский)

Файл
Кодек: x.264
Качество: BDRip-AVC (источник: Diablo / BDRemux / 1080p)
Видео: 1024x432 (2,40:1), 23,976 fps, 1691 kbps, 0.159 bit/pixel
Аудио #1: 48 kHz, AC3 Dolby Digital, 6 ch, ~384.00 kbps (Дубляж)
Аудио #2: 48 kHz, AC3 Dolby Digital, 6 ch, ~448.00 kbps (Супербит)
Аудио #3: 48 kHz, AC3 Dolby Digital, 6 ch, ~384.00 kbps (А. Дольский)
Аудио #4: 48 kHz, AC3 Dolby Digital, 6 ch, ~384.00 kbps (Оригинал)
Субтитры: Русские, Английские (отключаемые)

&
Общее
Уникальный идентификатор : 216714282159902074086479293662333295223 (0xA309A70CC8A1799EA97A4D205A50DA77)
Полное имя : D:Pathology.2008.BDRip-AVC.mkv
Формат : Matroska
Версия формата : Version 4 / Version 2
Размер файла : 2,18 Гбайт
Продолжительность : 1 ч. 34 м.
Общий поток : 3293 Кбит/сек
Название фильма : Патология / Pathology (2008) BDRip-AVC rip by Rulya74
Дата кодирования : UTC 2013-08-24 06:58:02
Программа кодирования : mkvmerge v6.2.0 ('Promised Land') built on Apr 28 2013 12:22:01
Библиотека кодирования : libebml v1.3.0 + libmatroska v1.4.0

Видео
Идентификатор : 1
Формат : AVC
Формат/Информация : Advanced Video Codec
Профиль формата : High@L4.1
Параметр CABAC формата : Да
Параметр ReFrames формата : 14 кадров
Идентификатор кодека : V_MPEG4/ISO/AVC
Продолжительность : 1 ч. 34 м.
Битрейт : 1691 Кбит/сек
Ширина : 1024 пикселя
Высота : 432 пикселя
Соотношение сторон : 2,40:1
Режим частоты кадров : Постоянный
Частота кадров : 23,976 кадра/сек
Цветовое пространство : YUV
Субдискретизация насыщенности : 4:2:0
Битовая глубина : 8 бит
Тип развёртки : Прогрессивная
Бит/(Пиксели*Кадры) : 0.159
Размер потока : 1,08 Гбайт (49%)
Библиотека кодирования : x264 core 133 r2334 a3ac64b
Настройки программы : cabac=1 / ref=14 / deblock=1:-2:-1 / analyse=0x3:0x113 / me=umh / subme=10 / psy=1 / psy_rd=1.09:0.04 / mixed_ref=1 / me_range=32 / chroma_me=1 / trellis=2 / 8x8dct=1 / cqm=0 / deadzone=21,11 / fast_pskip=0 / chroma_qp_offset=-3 / threads=8 / lookahead_threads=1 / sliced_threads=0 / nr=0 / decimate=1 / interlaced=0 / bluray_compat=0 / constrained_intra=0 / bframes=10 / b_pyramid=2 / b_adapt=1 / b_bias=0 / direct=3 / weightb=1 / open_gop=0 / weightp=2 / keyint=240 / keyint_min=23 / scenecut=40 / intra_refresh=0 / rc_lookahead=40 / rc=2pass / mbtree=1 / bitrate=1691 / ratetol=1.0 / qcomp=0.60 / qpmin=0 / qpmax=69 / qpstep=4 / cplxblur=20.0 / qblur=0.5 / vbv_maxrate=62500 / vbv_bufsize=78125 / nal_hrd=none / ip_ratio=1.40 / aq=1:1.00
Default : Да
Forced : Нет

Аудио #1
Идентификатор : 2
Формат : AC-3
Формат/Информация : Audio Coding 3
Расширение режима : CM (complete main)
Параметр Endianness формата : Big
Идентификатор кодека : A_AC3
Продолжительность : 1 ч. 34 м.
Вид битрейта : Постоянный
Битрейт : 384 Кбит/сек
Каналы : 6 каналов
Расположение каналов : Front: L C R, Side: L R, LFE
Частота : 48,0 КГц
Битовая глубина : 16 бит
Метод сжатия : С потерями
Размер потока : 260 Мбайт (12%)
Заголовок : Дублированный
Язык : Russian
Default : Да
Forced : Нет

Аудио #2
Идентификатор : 3
Формат : AC-3
Формат/Информация : Audio Coding 3
Расширение режима : CM (complete main)
Параметр Endianness формата : Big
Идентификатор кодека : A_AC3
Продолжительность : 1 ч. 34 м.
Вид битрейта : Постоянный
Битрейт : 448 Кбит/сек
Каналы : 6 каналов
Расположение каналов : Front: L C R, Side: L R, LFE
Частота : 48,0 КГц
Битовая глубина : 16 бит
Метод сжатия : С потерями
Размер потока : 304 Мбайт (14%)
Заголовок : Профессиональный (двухголосый закадровый, Супербит)
Язык : Russian
Default : Нет
Forced : Нет

Аудио #3
Идентификатор : 4
Формат : AC-3
Формат/Информация : Audio Coding 3
Расширение режима : CM (complete main)
Параметр Endianness формата : Big
Идентификатор кодека : A_AC3
Продолжительность : 1 ч. 34 м.
Вид битрейта : Постоянный
Битрейт : 384 Кбит/сек
Каналы : 6 каналов
Расположение каналов : Front: L C R, Side: L R, LFE
Частота : 48,0 КГц
Битовая глубина : 16 бит
Метод сжатия : С потерями
Размер потока : 260 Мбайт (12%)
Заголовок : Авторский (А. Дольский)
Язык : Russian
Default : Нет
Forced : Нет

Аудио #4
Идентификатор : 5
Формат : AC-3
Формат/Информация : Audio Coding 3
Расширение режима : CM (complete main)
Параметр Endianness формата : Big
Идентификатор кодека : A_AC3
Продолжительность : 1 ч. 34 м.
Вид битрейта : Постоянный
Битрейт : 384 Кбит/сек
Каналы : 6 каналов
Расположение каналов : Front: L C R, Side: L R, LFE
Частота : 48,0 КГц
Битовая глубина : 16 бит
Метод сжатия : С потерями
Размер потока : 260 Мбайт (12%)
Заголовок : Оригинал
Язык : English
Default : Нет
Forced : Нет

Текст #1
Идентификатор : 6
Формат : UTF-8
Идентификатор кодека : S_TEXT/UTF8
Идентификатор кодека/Информация : UTF-8 Plain Text
Язык : Russian
Default : Да
Forced : Нет

Текст #2
Идентификатор : 7
Формат : UTF-8
Идентификатор кодека : S_TEXT/UTF8
Идентификатор кодека/Информация : UTF-8 Plain Text
Язык : English
Default : Нет
Forced : Нет

Меню
00:00:00.000 : :Chapter 01
00:03:43.597 : :Chapter 02
00:09:29.527 : :Chapter 03
00:14:07.846 : :Chapter 04
00:19:01.265 : :Chapter 05
00:24:35.514 : :Chapter 06
00:28:56.693 : :Chapter 07
00:33:11.072 : :Chapter 08
00:37:45.262 : :Chapter 09
00:42:40.391 : :Chapter 10
00:47:16.750 : :Chapter 11
00:53:06.224 : :Chapter 12
00:57:14.514 : :Chapter 13
01:03:14.874 : :Chapter 14
01:07:38.095 : :Chapter 15
01:11:43.256 : :Chapter 16
01:15:33.320 : :Chapter 17
01:18:58.108 : :Chapter 18
01:24:01.036 : :Chapter 19
01:28:42.108 : :Chapter 20



Скачать Патология.Pathology.(2008.BDRip-AVC].[Dub]+[MVO]+[ABO.(А.Дольский)].torrent без регистрации
Золото ЗОЛОТАЯ РАЗДАЧА! СКАЧАННОЕ НЕ ЗАСЧИТЫВАЕТСЯ! Золото
Дата: Зарегистрирован   [ Тип: внутренний ] Как тут cкачать?
MAGNET ссылка
MAGNET ссылка


Скачать .torrent

11 KB

Статус: проверено DHT
Скачан: торрент - 120 раз, раздача полностью - 40 раз
Размер: 2,18 GB
Оценка:  - (Голосов: 0)
Поблагодарили: 2
Поделиться ссылкой на эту раздачу с друзьями:
В контактеFacebookОдноклассникиTwitterLivejournalМой МирLiveinternet
 

 
Показать сообщения:    


Вы не можете начинать темы
Вы не можете отвечать на сообщения
Вы не можете редактировать свои сообщения
Вы не можете удалять свои сообщения
Вы не можете голосовать в опросах
Вы не можете прикреплять файлы к сообщениям
Вы можете скачивать файлы