Loading...
Error

Скачать Боевик Джексон / Джексон мотор / Action Jackson (Крэйг Р. Бэксли) [1988, боевик, комедия, криминал, триллер, BDRip-AVC] [Dub]+[MVO]x2+[AVO]+[Sub] торрент без регистрации

 
Статистика раздачи
Размер:  2,16 GB   |    Скачан:  97 раз
Сидов:  1  [  0 KB/s  ]  
 
Автор Сообщение

Marsianka

[] 

Информация о фильме
Название: Боевик Джексон / Джексон мотор
Оригинальное название: Action Jackson
Год выхода: 1988
Жанр: боевик, комедия, криминал, триллер
Режиссер: Крэйг Р. Бэксли
В ролях: Карл Уэзерс, Крэйг Т. Нельсон, Вэнити, Шэрон Стоун, Томас Ф. Уилсон, Билл Дьюк, Роберт Дави, Джек Тибо, Роджер Аарон Браун, Стэн Фостер, Дэвид Глен Айсли

О фильме:
Сержант полиции Джексон, по прозвищу «Боевик», бросает вызов жестоким убийцам, состоящим на службе у безжалостного автомагната, который рассчитывает путем убийств расчистить себе дорогу к политической власти. Преследуемый своими же коллегами-полицейскими по сфабрикованному обвинению, Джексон предпринимает отчаянную попытку разоблачения



Страна: США
Студия: Lorimar Film Entertainment, Silver Pictures
Продолжительность: 01:35:58
Перевод: Дублированный, профессиональный (многоголосый закадровый), авторский (одноголосый закадровый)

Файл
Кодек: h.264
Качество: BDRip-AVC
Видео: 2256 Кбит/с, 1020x576, 23.976 кадр/с
1: Русский (AC3, 2 ch, 192 Кбит/с) Дублированный [Варус Видео]
2: Русский (AC3, 2 ch, 192 Кбит/с) Профессиональный многоголосый [ВГТРК]
3: Русский (AC3, 2 ch, 192 Кбит/с) Авторский одноголосый [Алексей Михалев]
4: Украинский (AC3, 2 ch, 192 Кбит/с) Профессиональный многоголосый [НТН]
5: Английский (AC3, 2 ch, 192 Кбит/с)

Субтитры: Английские

Полное имя : Action.Jackson.1988.x264.BDRip.(AVC).0ptimus.mkv
Формат : Matroska
Версия формата : Version 4 / Version 2
Размер файла : 2,16 Гбайт
Продолжительность : 1 ч. 35 м.
Общий поток : 3217 Кбит/сек
Название фильма : Боевик Джексон (Джексон мотор) | Action Jackson [1988] -=BDRip (AVC) by 0ptimus=-
Дата кодирования : UTC 2013-08-24 09:31:21
Программа кодирования : mkvmerge v6.1.0 ('Old Devil') built on Mar 2 2013 14:32:37
Библиотека кодирования : libebml v1.3.0 + libmatroska v1.4.0

Видео
Идентификатор : 1
Формат : AVC
Формат/Информация : Advanced Video Codec
Профиль формата : High@L4.1
Параметр CABAC формата : Да
Параметр ReFrames формата : 9 кадров
Идентификатор кодека : V_MPEG4/ISO/AVC
Продолжительность : 1 ч. 35 м.
Битрейт : 2256 Кбит/сек
Ширина : 1020 пикселей
Высота : 576 пикселей
Соотношение сторон : 16:9
Частота кадров : 23,976 кадра/сек
Цветовое пространство : YUV
Субдискретизация насыщенности : 4:2:0
Битовая глубина : 8 бит
Тип развёртки : Прогрессивная
Бит/(Пиксели*Кадры) : 0.160
Размер потока : 1,47 Гбайт (68%)
Заголовок : Rip by 0ptimus
Библиотека кодирования : x264 core 133 r2334 a3ac64b
Настройки программы : cabac=1 / ref=9 / deblock=1:-3:-3 / analyse=0x3:0x113 / me=umh / subme=11 / psy=1 / psy_rd=1.00:0.20 / mixed_ref=1 / me_range=32 / chroma_me=1 / trellis=2 / 8x8dct=1 / cqm=0 / deadzone=21,11 / fast_pskip=0 / chroma_qp_offset=-3 / threads=4 / lookahead_threads=1 / sliced_threads=0 / nr=0 / decimate=0 / interlaced=0 / bluray_compat=0 / constrained_intra=0 / bframes=12 / b_pyramid=2 / b_adapt=2 / b_bias=0 / direct=3 / weightb=1 / open_gop=0 / weightp=2 / keyint=240 / keyint_min=23 / scenecut=40 / intra_refresh=0 / rc_lookahead=40 / rc=2pass / mbtree=0 / bitrate=2256 / ratetol=1.0 / qcomp=0.60 / qpmin=0 / qpmax=69 / qpstep=4 / cplxblur=20.0 / qblur=0.5 / vbv_maxrate=50000 / vbv_bufsize=50000 / nal_hrd=none / ip_ratio=1.40 / pb_ratio=1.30 / aq=1:1.00
Язык : English

Аудио #1
Идентификатор : 2
Формат : AC-3
Формат/Информация : Audio Coding 3
Расширение режима : CM (complete main)
Идентификатор кодека : A_AC3
Продолжительность : 1 ч. 35 м.
Вид битрейта : Постоянный
Битрейт : 192 Кбит/сек
Каналы : 2 канала
Расположение каналов : Front: L R
Частота : 48,0 КГц
Битовая глубина : 16 бит
Метод сжатия : С потерями
Размер потока : 132 Мбайт (6%)
Заголовок : Дублированный [Варус Видео] AC3 2.0 @ 192 kbps
Язык : Russian

Аудио #2
Идентификатор : 3
Формат : AC-3
Формат/Информация : Audio Coding 3
Расширение режима : CM (complete main)
Идентификатор кодека : A_AC3
Продолжительность : 1 ч. 35 м.
Вид битрейта : Постоянный
Битрейт : 192 Кбит/сек
Каналы : 2 канала
Расположение каналов : Front: L R
Частота : 48,0 КГц
Битовая глубина : 16 бит
Метод сжатия : С потерями
Размер потока : 132 Мбайт (6%)
Заголовок : Многоголосый закадровый [ВГТРК] AC3 2.0 @ 192 kbps
Язык : Russian

Аудио #3
Идентификатор : 4
Формат : AC-3
Формат/Информация : Audio Coding 3
Расширение режима : CM (complete main)
Идентификатор кодека : A_AC3
Продолжительность : 1 ч. 35 м.
Вид битрейта : Постоянный
Битрейт : 192 Кбит/сек
Каналы : 2 канала
Расположение каналов : Front: L R
Частота : 48,0 КГц
Битовая глубина : 16 бит
Метод сжатия : С потерями
Размер потока : 132 Мбайт (6%)
Заголовок : Авторский [Алексей Михалев] AC3 2.0 @ 192 kbps
Язык : Russian

Аудио #4
Идентификатор : 5
Формат : AC-3
Формат/Информация : Audio Coding 3
Расширение режима : CM (complete main)
Идентификатор кодека : A_AC3
Продолжительность : 1 ч. 35 м.
Вид битрейта : Постоянный
Битрейт : 192 Кбит/сек
Каналы : 6 каналов
Расположение каналов : Front: L C R, Side: L R, LFE
Частота : 48,0 КГц
Битовая глубина : 16 бит
Метод сжатия : С потерями
Размер потока : 132 Мбайт (6%)
Заголовок : Многоголосый закадровый [НТН] AC3 2.0 @ 192 kbps
Язык : Ukrainian

Аудио #5
Идентификатор : 6
Формат : AC-3
Формат/Информация : Audio Coding 3
Расширение режима : CM (complete main)
Идентификатор кодека : A_AC3
Продолжительность : 1 ч. 35 м.
Вид битрейта : Постоянный
Битрейт : 192 Кбит/сек
Каналы : 2 канала
Расположение каналов : Front: L R
Частота : 48,0 КГц
Битовая глубина : 16 бит
Метод сжатия : С потерями
Размер потока : 132 Мбайт (6%)
Заголовок : AC3 2.0 @ 192 kbps
Язык : English

Текст
Идентификатор : 7
Формат : UTF-8
Идентификатор кодека : S_TEXT/UTF8
Идентификатор кодека/Информация : UTF-8 Plain Text
Язык : English

Меню
00:00:00.000 : en:Chapter 1
00:09:35.533 : en:Chapter 2
00:20:25.224 : en:Chapter 3
00:30:38.253 : en:Chapter 4
00:41:29.445 : en:Chapter 5
00:50:48.670 : en:Chapter 6
01:00:25.246 : en:Chapter 7
01:12:28.969 : en:Chapter 8
01:24:06.708 : en:Chapter 9
01:31:49.587 : en:Chapter 10

--------------------------------------------------------------------
x264 [info]: frame I:941 Avg QP:15.71 size: 87043
x264 [info]: frame P:32556 Avg QP:19.10 size: 27088
x264 [info]: frame B:104557 Avg QP:20.80 size: 6304
--------------------------------------------------------------------
Релиз от:



Скачать Боевик.Джексон.Джексон.мотор.Action.Jackson.(Крэйг.Р.Бэксли).[1988.боевик.комедия.криминал.триллер.BDRip-AVC].[Dub]+[MVO]x2+[AVO]+[Sub].torrent без регистрации
Золото ЗОЛОТАЯ РАЗДАЧА! СКАЧАННОЕ НЕ ЗАСЧИТЫВАЕТСЯ! Золото
Дата: Зарегистрирован   [ Тип: внутренний ] Как тут cкачать?
MAGNET ссылка
MAGNET ссылка


Скачать .torrent

22 KB

Статус: проверено DHT
Скачан: торрент - 97 раз, раздача полностью - 4 раз
Размер: 2,16 GB
Оценка:  - (Голосов: 0)
Поблагодарили: 0
Поделиться ссылкой на эту раздачу с друзьями:
В контактеFacebookОдноклассникиTwitterLivejournalМой МирLiveinternet
 

 
Показать сообщения:    


Вы не можете начинать темы
Вы не можете отвечать на сообщения
Вы не можете редактировать свои сообщения
Вы не можете удалять свои сообщения
Вы не можете голосовать в опросах
Вы не можете прикреплять файлы к сообщениям
Вы можете скачивать файлы