Loading...
Error

Скачать Правосудие Декстера / Dexter (8x1-10 из 12) (Маркос Сига, Тим Хантер, Кит Гордон) [2013 г., драма, детектив, криминал, триллер, HDTVRip] [MVO (LostFilm)] торрент без регистрации

 
Статистика раздачи
Размер:  4,87 GB   |    Скачан:  722 раза

Полного источника не было: 21 минута

 
Автор Сообщение

МихаНЕзатор

[] 

Декстер / Dexter


Год выпуска: 2013
Страна: США (Showtime)
Жанр: триллер, драма, криминал, детектив
Продолжительность: ~ 00:56:00
Перевод: Профессиональный (многоголосый, закадровый)
Режиссер: Маркос Сига, Тим Хантер, Кит Гордон

В ролях:
Майкл Холл, Джули Бенц, Дженифер Карпентер, Лорен Велез, Дэвид Зайяс, Джеймс Ремар и другие...

Описание:
Я — Декстер. Декстер Морган. Я работаю судмедэкспертом в полиции Майами. Я не понимаю любви, мне безразличен секс, и у меня нет чувств. А еще я серийный убийца.
Мой отец был полицейским, и прекрасно обучил меня прятать улики. Обычным гражданам не стоит меня бояться, я убиваю только преступников, подонков, до которых почему-либо не смогла или не захотела добраться полиция. Я убиваю их, аккуратно распиливаю на части, и избавляюсь от трупов. Убийство для меня — творческий акт, искусство.
Но однажды… В Майами появляется некто, равный мне. Даже превзошедший меня. Сумевший меня заинтересовать. Предложивший мне своего рода товарищеское состязание. Кто этот загадочный и неуловимый «икс»..?



Качество: HDTVRip
Формат: AVI
Видео кодек: XviD
Аудио кодек: MP3
Видео: 656x368 (16/9), 23.976 fps, 1050 Kbps (0.18 bit/pixel)
Аудио (rus): 48 kHz, MPEG Layer 3, 2 ch, ~128.00 kbps avg
Аудио (eng): 48 kHz, MPEG Layer 3, 2 ch, ~128.00 kbps avg

13.09.2013 г. торент обновлён, добавлена 10-я серия!
Общее
Полное имя : I:\Декстер (Сезон 8) LostFilm\Dexter.S08E01.HDTVRip.LostFilm.avi
Формат : AVI
Формат/Информация : Audio Video Interleave
Размер файла : 501 Мбайт
Продолжительность : 53 м.
Общий поток : 1307 Кбит/сек
Программа кодирования : VirtualDubMod 1.5.10.3 | www.virtualdub-fr.org || (build 2550/release)
Библиотека кодирования : VirtualDubMod build 2550/release
Видео
Идентификатор : 0
Формат : MPEG-4 Visual
Профиль формата : Advanced Simple@L5
Параметр BVOP формата : 1
Параметр QPel формата : Нет
Параметр GMC формата : Без точки перехода
Параметр матрицы формата : Выборочная
Идентификатор кодека : XVID
Идентификатор кодека/Подсказка : XviD
Продолжительность : 53 м.
Битрейт : 1037 Кбит/сек
Ширина : 656 пикселей
Высота : 368 пикселей
Соотношение сторон : 16:9
Частота кадров : 23,976 кадра/сек
Цветовое пространство : YUV
Субдискретизация насыщенности : 4:2:0
Битовая глубина : 8 бит
Тип развёртки : Прогрессивная
Метод сжатия : С потерями
Бит/(Пиксели*Кадры) : 0.179
Размер потока : 397 Мбайт (79%)
Библиотека кодирования : XviD 63
Аудио #1
Идентификатор : 1
Формат : MPEG Audio
Версия формата : Version 1
Профиль формата : Layer 3
Режим : Joint stereo
Расширение режима : MS Stereo
Идентификатор кодека : 55
Идентификатор кодека/Подсказка : MP3
Продолжительность : 53 м.
Вид битрейта : Постоянный
Битрейт : 128 Кбит/сек
Каналы : 2 канала
Частота : 48,0 КГц
Метод сжатия : С потерями
Размер потока : 49,0 Мбайт (10%)
Выравнивание : Соединение по промежуткам
Продолжительность промежутка : 42 мс. (1,00 видеокадр)
Время предзагрузки промежутка : 504 мс.
Аудио #2
Идентификатор : 2
Формат : MPEG Audio
Версия формата : Version 1
Профиль формата : Layer 3
Режим : Joint stereo
Расширение режима : MS Stereo
Идентификатор кодека : 55
Идентификатор кодека/Подсказка : MP3
Продолжительность : 53 м.
Вид битрейта : Постоянный
Битрейт : 128 Кбит/сек
Каналы : 2 канала
Частота : 48,0 КГц
Метод сжатия : С потерями
Размер потока : 49,0 Мбайт (10%)
Выравнивание : Соединение по промежуткам
Продолжительность промежутка : 42 мс. (1,00 видеокадр)
Время предзагрузки промежутка : 504 мс.
Внимание! Раздача ведётся путём добавления новых серий; при каждом добавлении создётся новый торрент. Чтобы начать докачку новой серии, пользователям необходимо сделать следующее:
(1) остановить скачивание,
(2) удалить старый торрент у себя из клиента (старые серии удалять не надо),
(3) скачать новый торрент и запустить его у себя в клиенте вместо старого, при этом указать клиенту путь в старую папку куда и должно происходить скачивание новых серий.
Ваш клиент при этом должен произвести хеширование (проверку) старой папки (если не производит сам - помогите ему сделать это), и будет докачивать только те серии которых у вас ещё нет. Старые серии при этом не удаляются, а продолжают раздаваться!
Eсли вы уже удалили старые серии, то предотвратить повторную закачку старых серий можно, отжав галочку в соответсвующих местах при запуске нового торрента.



Скачать Правосудие.Декстера.Dexter.(8x1-10.из.12).(Маркос.Сига.Тим.Хантер.Кит.Гордон).[2013.г.драма.детектив.криминал.триллер.HDTVRip].[MVO.(LostFilm)].torrent без регистрации
Золото ЗОЛОТАЯ РАЗДАЧА! СКАЧАННОЕ НЕ ЗАСЧИТЫВАЕТСЯ! Золото
Дата: Зарегистрирован   [ Тип: внутренний ] Как тут cкачать?
MAGNET ссылка
MAGNET ссылка


Скачать .torrent

13 KB

Статус: проверено DHT
Скачан: торрент - 722 раз, раздача полностью - 16 раз
Размер: 4,87 GB
Оценка:  4,7 (Голосов: 3)
Поблагодарили: 5
Поделиться ссылкой на эту раздачу с друзьями:
В контактеFacebookОдноклассникиTwitterLivejournalМой МирLiveinternet
 

 

МихаНЕзатор

[] 

Раздача обновлена
 
Показать сообщения:    


Вы не можете начинать темы
Вы не можете отвечать на сообщения
Вы не можете редактировать свои сообщения
Вы не можете удалять свои сообщения
Вы не можете голосовать в опросах
Вы не можете прикреплять файлы к сообщениям
Вы можете скачивать файлы