Loading...
Error

Скачать Пьяный тай-чи / Siu taai gik (Юэнь Ву-Пин) [1984, боевые искусства, DVDRip] [VO] торрент без регистрации

 
Статистика раздачи
Размер:  1,45 GB   |    Скачан:  126 раз
Сидов:  1  [  0 KB/s  ]  
 
Автор Сообщение

Marsianka

[] 

Информация о фильме
Название: Пьяный тай-чи
Оригинальное название: Siu taai gik
Год выхода: 1984
Жанр: боевые искусства
Режиссер: Юэнь Ву-Пин
В ролях: Донни Ен, Чеунг-Ян Юэнь, Лидия Сум, Шун-Йи Юэнь, Мэнди Чан, Ят Чор Юэнь, Дон Вонг, Чун Кай Чунг, Чанг Хсян, Вонг Кин-Ми

О фильме:
Действие разворачивается в начале века, и главный герой младший сын в семье местного «кулака». Папаша обожает своего младшенького, одевая его и наставляя на путь истинный «по полной программе», в то же время заставляя старшего вкалывать с утра до ночи на благо брата. Тем не менее, братья любят друг друга и постоянно вместе. Все меняется, когда вдвоем они срывают план сыночка местного богатея поиздеваться над ними, обратив козни недоросля против него самого.


Страна: Китай, Гонконг
Студия: Dragons Group Film co., LTD.
Продолжительность: 01:26:38
Перевод: Любительский одноголосый закадровый

Файл
Кодек: XviD
Качество: DVDRip
Видео: 720x368. fps: 25,00. Битрейт: 2198 Kbps. 0,34 b/px.
Звук: AC3. CH: 2. 48000 Hz. Битрейт: 192 Kbps.
Субтитры: нет
Формат : AVI
Формат/Информация : Audio Video Interleave
Размер файла : 1,45 Гбайт
Продолжительность : 1 ч. 26 м.
Общий поток : 2400 Кбит/сек
Программа кодирования : VirtualDubMod 1.5.10.2 (build 2540/release)
Библиотека кодирования : VirtualDubMod build 2540/release

Видео
Идентификатор : 0
Формат : MPEG-4 Visual
Профиль формата : Advanced Simple@L5
Параметр BVOP формата : 1
Параметр QPel формата : Нет
Параметр GMC формата : Без точки перехода
Параметр матрицы формата : Default (H.263)
Идентификатор кодека : XVID
Идентификатор кодека/Подсказка : XviD
Продолжительность : 1 ч. 26 м.
Битрейт : 2198 Кбит/сек
Ширина : 720 пикселей
Высота : 368 пикселей
Соотношение сторон : 1,957
Частота кадров : 25,000 кадров/сек
Цветовое пространство : YUV
Субдискретизация насыщенности : 4:2:0
Битовая глубина : 8 бит
Тип развёртки : Прогрессивная
Метод сжатия : С потерями
Бит/(Пиксели*Кадры) : 0.332
Размер потока : 1,33 Гбайт (92%)
Библиотека кодирования : XviD 1.2.0.dev47 (UTC 2006-11-01)

Аудио
Идентификатор : 1
Формат : AC-3
Формат/Информация : Audio Coding 3
Расширение режима : CM (complete main)
Параметр Endianness формата : Big
Идентификатор кодека : 2000
Продолжительность : 1 ч. 26 м.
Вид битрейта : Постоянный
Битрейт : 192 Кбит/сек
Каналы : 2 канала
Расположение каналов : Front: L R
Частота : 48,0 КГц
Битовая глубина : 16 бит
Метод сжатия : С потерями
Размер потока : 119 Мбайт (8%)
Выравнивание : Разделение по промежуткам
Продолжительность промежутка : 40 мс. (1,00 видеокадр)
Время предзагрузки промежутка : 500 мс.



Скачать Пьяный.тай-чи.Siu.taai.gik.(Юэнь.Ву-Пин).[1984.боевые.искусства.DVDRip].[VO].torrent без регистрации
Золото ЗОЛОТАЯ РАЗДАЧА! СКАЧАННОЕ НЕ ЗАСЧИТЫВАЕТСЯ! Золото
Дата: Зарегистрирован   [ Тип: внутренний ] Как тут cкачать?
MAGNET ссылка
MAGNET ссылка


Скачать .torrent

15 KB

Статус: проверено DHT
Скачан: торрент - 126 раз, раздача полностью - 12 раз
Размер: 1,45 GB
Оценка:  - (Голосов: 0)
Поблагодарили: 1
Поделиться ссылкой на эту раздачу с друзьями:
В контактеFacebookОдноклассникиTwitterLivejournalМой МирLiveinternet
 

 
Показать сообщения:    


Вы не можете начинать темы
Вы не можете отвечать на сообщения
Вы не можете редактировать свои сообщения
Вы не можете удалять свои сообщения
Вы не можете голосовать в опросах
Вы не можете прикреплять файлы к сообщениям
Вы можете скачивать файлы