Loading...
Error

Скачать Бухая история / Пьяная история / Drunk History (01х01) (Дерек Уотерс) [2013, комедия, HDTVRip] [720p] [DVO (Ozz & Кубик в Кубе)] торрент без регистрации

 
Статистика раздачи
Размер:  514 MB   |    Скачан:  163 раза
Сидов:  1  [  0 KB/s  ]  
 
Автор Сообщение

МихаНЕзатор

[] 

Бухая история / Пьяная история / Drunk History


Год выпуска: 2013
Страна: США
Жанр: комедия
Продолжительность: ~00:22:00

Перевод: Профессиональный двухголосый (Ozz.TV & Кубик в Кубе)
Режиссёр: Derek Waters / Дерек Уотерс

В ролях: Джек Блэк, Стивен Мёрчант, Дейв Грол, Майкл Сера, Вайнона Райдер, Люк Уилсон, Оуэн Уилсон, Джейсон Шварцман, Альфред Молина, Зои Дешанель, Уилл Ферелл, Кристен Уиг и другие.

Описание:
Дети, сегодня мы начинаем изучать крайне важный предмет историю. Правда, учитель ваш, с*ка, вчера набухался в хламину, а сегодня обильно похмелялся, так что за точность рассказываемых событий ручаться не рискнём. Но чтобы вам, дорогие дети, всё стало понятнее, его рассказ специально для вас инсценировали всякие знаменитые лица. Все совпадения с реальными людьми преднамеренны. При переводе и озвучке пострадали животные переводчик и актёры озвучания, которые, пользуясь случаем, выражают благодарность сразу всем производителям пива, коньяка и вермута разом. Наибольший эффект от просмотра достигается при максимальном совпадении кондиции зрителей с рассказчиками. Ну, вздрогнули!

Доп. информация:
«Бухая история» это хулиганский проект вебсайта Funny or Die, который Comedy Central превратил в полноценное телешоу. Рассказчики в разной степени опьянения пытаются пересказать известные исторические события, а различные голливудские знаменитости этот бред инсценируют, открывая рты под авторские реплики.

Над переводом работали:
Перевод: Василий Мерзляков aka Basil IV
Озвучка: Руслан Габидуллин (Кубик в Кубе), Алексей Серегин (OzzTV)



Внимание!
Актёры пьяные и за языком не следят!




Качество: HDTVRip 720p
Контейнер: MKV

Видео: AVC 1280x720, 23.976 fps, 2733 kbps, 0.124 bit/pixel
Аудио: MP3 44.1 kHz, 2 ch, 192 kbps
Аудио 2: AAC 48 kHz, 6 ch, 384 kbps
Субтитры: отсутствуют

General
Format : Matroska
Format version : Version 4 / Version 2
File size : 514 MiB
Duration : 21mn 16s
Overall bit rate : 3 376 Kbps
Encoded date : UTC 2013-08-26 19:12:38
Writing application : mkvmerge v6.1.0 ('Old Devil') built on Mar 4 2013 20:22:18
Writing library : libebml v1.3.0 + libmatroska v1.4.0

Video
ID : 1
Format : AVC
Format/Info : Advanced Video Codec
Format profile : High@L4.1
Format settings, CABAC : Yes
Format settings, ReFrames : 5 frames
Codec ID : V_MPEG4/ISO/AVC
Duration : 21mn 16s
Bit rate : 2 733 Kbps
Width : 1 280 pixels
Height : 720 pixels
Display aspect ratio : 16:9
Frame rate mode : Constant
Frame rate : 23.976 fps
Color space : YUV
Chroma subsampling : 4:2:0
Bit depth : 8 bits
Scan type : Progressive
Bits/(Pixel*Frame) : 0.124
Stream size : 416 MiB (81%)
Writing library : x264 core 133 r2334 a3ac64b
Encoding settings : cabac=1 / ref=5 / deblock=1:0:0 / analyse=0x3:0x113 / me=umh / subme=8 / psy=1 / psy_rd=1.00:0.00 / mixed_ref=1 / me_range=16 / chroma_me=1 / trellis=1 / 8x8dct=1 / cqm=0 / deadzone=21,11 / fast_pskip=1 / chroma_qp_offset=-2 / threads=18 / lookahead_threads=3 / sliced_threads=0 / nr=0 / decimate=1 / interlaced=0 / bluray_compat=0 / constrained_intra=0 / bframes=3 / b_pyramid=2 / b_adapt=2 / b_bias=0 / direct=3 / weightb=1 / open_gop=0 / weightp=2 / keyint=250 / keyint_min=23 / scenecut=40 / intra_refresh=0 / rc_lookahead=50 / rc=crf / mbtree=1 / crf=18.0 / qcomp=0.60 / qpmin=0 / qpmax=69 / qpstep=4 / ip_ratio=1.40 / aq=1:1.00
Language : Russian
Default : Yes
Forced : No
Matrix coefficients : BT.709

Audio #1
ID : 2
Format : MPEG Audio
Format version : Version 1
Format profile : Layer 3
Codec ID : A_MPEG/L3
Codec ID/Hint : MP3
Duration : 21mn 16s
Bit rate mode : Constant
Bit rate : 192 Kbps
Channel(s) : 2 channels
Sampling rate : 44.1 KHz
Compression mode : Lossy
Stream size : 29.2 MiB (6%)
Language : Russian
Default : Yes
Forced : No

Audio #2
ID : 3
Format : AC-3
Format/Info : Audio Coding 3
Mode extension : CM (complete main)
Format settings, Endianness : Big
Codec ID : A_AC3
Duration : 21mn 16s
Bit rate mode : Constant
Bit rate : 384 Kbps
Channel(s) : 6 channels
Channel positions : Front: L C R, Side: L R, LFE
Sampling rate : 48.0 KHz
Bit depth : 16 bits
Compression mode : Lossy
Stream size : 58.5 MiB (11%)
Language : English
Default : No
Forced : No



Скачать Бухая.история.Пьяная.история.Drunk.History.(01х01).(Дерек.Уотерс).[2013.комедия.HDTVRip].[720p].[DVO.(Ozz.&.Кубик.в.Кубе)].torrent без регистрации
Золото ЗОЛОТАЯ РАЗДАЧА! СКАЧАННОЕ НЕ ЗАСЧИТЫВАЕТСЯ! Золото
Дата: Зарегистрирован   [ Тип: внутренний ] Как тут cкачать?
MAGNET ссылка
MAGNET ссылка


Скачать .torrent

21 KB

Статус: проверено DHT
Скачан: торрент - 163 раз, раздача полностью - 71 раз
Размер: 514 MB
Оценка:  5 (Голосов: 2)
Поблагодарили: 5
Поделиться ссылкой на эту раздачу с друзьями:
В контактеFacebookОдноклассникиTwitterLivejournalМой МирLiveinternet
 

 

Сергей Р.

[] 

Ну, мягко говоря, фильм на любителя! ac
 
Показать сообщения:    


Вы не можете начинать темы
Вы не можете отвечать на сообщения
Вы не можете редактировать свои сообщения
Вы не можете удалять свои сообщения
Вы не можете голосовать в опросах
Вы не можете прикреплять файлы к сообщениям
Вы можете скачивать файлы