Loading...
Error

Скачать Хороший, плохой, злой / Il buono, il brutto, il cattivo (Серджио Леоне / Sergio Leone) [1966 г., вестерн, DVDRip] [AVO] (А.Михалев) торрент без регистрации

 
Статистика раздачи
Размер:  2,5 GB   |    Скачан:  134 раза
Сидов:  1  [  0 KB/s  ]  
 
Автор Сообщение

leon030982

[] 

Хороший, плохой, злой / Il buono, il brutto, il cattivo


Год выпуска: 1966
Страна: Италия, Испания, Германия
Жанр: вестерн
Продолжительность: 02:58:41
Перевод : Авторский (одноголосный, закадровый) [А.Михалев]

Режиссер: Серджио Леоне / Sergio Leone

В ролях: Эли Уоллах, Клинт Иствуд, Ли Ван Клиф, Марио Брега, Рада Рассимов, Альдо Джуффре, Луиджи Пистилли, Антонио Касас, Антонио Молино Рохо, Антонио Казале

Описание: Заключительная часть «долларовой трилогии» Серджио Леоне. Сюжет классический для вестерна: пути трех харезматичных мачо, ищущих на Диком Западе достойную долю, пересекаются в желании завладеть кладом. Со всеми вытекающими...
Наверное один их лучших так называемых спагетти-вестернов (и вестернов Серджио Леоне, в частности), стоящий в одном ряду с лучшими голливудскими вестернами.




Качество видео: DVDRip
Формат видео: AVI
Видео кодек: XviD
Аудио кодек: AC3
Видео: 720x304 (2.37:1), 23.976 fps, XviD build 50 ~1548 kbps avg, 0.29 bit/pixel
Аудио : 48 kHz, AC3 Dolby Digital, 3/2 (L,C,R,l,r) + LFE ch, ~448.00 kbps avg
E:\INTERNET\Horoshiy.Plohoy.Zloy.1966.XviD.DVDRip.avi
General
Complete name : E:\INTERNET\Horoshiy.Plohoy.Zloy.1966.XviD.DVDRip.avi
Format : AVI
Format/Info : Audio Video Interleave
Format profile : OpenDML
File size : 2.50 GiB
Duration : 2h 58mn
Overall bit rate : 2 004 Kbps
Movie name : Хороший, плохой, злой / The Good, the Bad and the Ugly (1966)
Writing application : VirtualDubMod 1.5.10.2 (build 2540/release)
Writing library : VirtualDubMod build 2540/release
Video #0
ID : 0
Format : MPEG-4 Visual
Format profile : Advanced Simple@L5
Format settings, BVOP : 1
Format settings, QPel : No
Format settings, GMC : No warppoints
Format settings, Matrix : Custom
Codec ID : DIVX
Codec ID/Info : Project Mayo
Codec ID/Hint : DivX 4
Duration : 2h 58mn
Bit rate : 1 544 Kbps
Width : 720 pixels
Height : 304 pixels
Display aspect ratio : 2.35:1
Frame rate : 23.976 fps
Color space : YUV
Chroma subsampling : 4:2:0
Bit depth : 8 bits
Scan type : Progressive
Compression mode : Lossy
Bits/(Pixel*Frame) : 0.294
Stream size : 1.93 GiB (77%)
Writing library : XviD 1.2.1 (UTC 2008-12-04)
Audio #1
ID : 1
Format : AC-3
Format/Info : Audio Coding 3
Mode extension : CM (complete main)
Format settings, Endianness : Big
Codec ID : 2000
Duration : 2h 58mn
Bit rate mode : Constant
Bit rate : 448 Kbps
Channel(s) : 6 channels
Channel positions : Front: L C R, Side: L R, LFE
Sampling rate : 48.0 KHz
Bit depth : 16 bits
Compression mode : Lossy
Stream size : 573 MiB (22%)
Alignment : Split accross interleaves
Interleave, duration : 42 ms (1.00 video frame)
Interleave, preload duration : 500 ms



Скачать Хороший.плохой.злой.Il.buono.il.brutto.il.cattivo.(Серджио.Леоне.Sergio.Leone).[1966.г.вестерн.DVDRip].[AVO].(А.Михалев).torrent без регистрации
Золото ЗОЛОТАЯ РАЗДАЧА! СКАЧАННОЕ НЕ ЗАСЧИТЫВАЕТСЯ! Золото
Дата: Зарегистрирован   [ Тип: внутренний ] Как тут cкачать?
MAGNET ссылка
MAGNET ссылка


Скачать .torrent

13 KB

Статус: проверено DHT
Скачан: торрент - 134 раз, раздача полностью - 20 раз
Размер: 2,5 GB
Оценка:  5 (Голосов: 3)
Поблагодарили: 4
Поделиться ссылкой на эту раздачу с друзьями:
В контактеFacebookОдноклассникиTwitterLivejournalМой МирLiveinternet
 

 
Показать сообщения:    


Вы не можете начинать темы
Вы не можете отвечать на сообщения
Вы не можете редактировать свои сообщения
Вы не можете удалять свои сообщения
Вы не можете голосовать в опросах
Вы не можете прикреплять файлы к сообщениям
Вы можете скачивать файлы