Loading...
Error

Скачать Рубин и Эд / Rubin & Ed (Трент Харрис / Trent Harris) [1991, комедия, VHSRip] [VO] (Хэм) торрент без регистрации

 
Статистика раздачи
Размер:  683 MB   |    Скачан:  100 раз
Сидов:  1  [  0 KB/s  ]  
 
Автор Сообщение

leon030982

[] 

Рубин и Эд / Rubin & Ed


Год выпуска: 1991
Страна: Великобритания
Жанр: комедия
Продолжительность: 01:21:52
Перевод: Одноголосый (закадровый) [Хэм]
Cубтитры: нет

Режиссер: Трент Харрис / Trent Harris

В ролях: Криспин Гловер, Говард Хессеман, Карен Блэк, Майкл Грин

Описание: Двое неудачников – Эд и Рубин – отправляются в пустыню, чтобы похоронить скончавшегося кота Рубина в «правильном» месте.



Качество видео: VHSRip
Формат видео: AVI
Видео кодек: DIVX
Аудио кодек: MP3
Видео: DIVX, 720x544, 4:3, 29,970 fps, 994 kbps
Аудио: MP3, 48 kHz, 160 kbps, 2.0
General
Complete name : D:\Movs\Rubin.And.Ed.1991.Rus.avi
Format : AVI
Format/Info : Audio Video Interleave
File size : 683 MiB
Duration : 1h 21mn
Overall bit rate : 1 166 Kbps
Writing application : VirtualDubMod 1.5.4.1 (build 2178/release)
Writing library : VirtualDub build 32842/release
Video
ID : 0
Format : MPEG-4 Visual
Format settings, BVOP : 1
Format settings, QPel : No
Format settings, GMC : No warppoints
Format settings, Matrix : Default (H.263)
Muxing mode : Packed bitstream
Codec ID : DX50
Codec ID/Hint : DivX 5
Duration : 1h 21mn
Bit rate : 994 Kbps
Width : 720 pixels
Height : 544 pixels
Display aspect ratio : 4:3
Frame rate : 29.970 fps
Color space : YUV
Chroma subsampling : 4:2:0
Bit depth : 8 bits
Scan type : Progressive
Compression mode : Lossy
Bits/(Pixel*Frame) : 0.085
Stream size : 582 MiB (85%)
Writing library : DivX 6.8.5 (UTC 2009-08-20)
Audio
ID : 1
Format : MPEG Audio
Format version : Version 1
Format profile : Layer 3
Mode : Joint stereo
Codec ID : 55
Codec ID/Hint : MP3
Duration : 1h 21mn
Bit rate mode : Constant
Bit rate : 160 Kbps
Channel(s) : 2 channels
Sampling rate : 48.0 KHz
Compression mode : Lossy
Stream size : 93.7 MiB (14%)
Alignment : Split accross interleaves
Interleave, duration : 33 ms (1.00 video frame)
Interleave, preload duration : 500 ms



Скачать Рубин.и.Эд.Rubin.&.Ed.(Трент.Харрис.Trent.Harris).[1991.комедия.VHSRip].[VO].(Хэм).torrent без регистрации
Золото ЗОЛОТАЯ РАЗДАЧА! СКАЧАННОЕ НЕ ЗАСЧИТЫВАЕТСЯ! Золото
Дата: Зарегистрирован   [ Тип: внутренний ] Как тут cкачать?
MAGNET ссылка
MAGNET ссылка


Скачать .torrent

14 KB

Статус: проверено DHT
Скачан: торрент - 100 раз, раздача полностью - 3 раз
Размер: 683 MB
Оценка:  5 (Голосов: 2)
Поблагодарили: 0
Поделиться ссылкой на эту раздачу с друзьями:
В контактеFacebookОдноклассникиTwitterLivejournalМой МирLiveinternet
 

 
Показать сообщения:    


Вы не можете начинать темы
Вы не можете отвечать на сообщения
Вы не можете редактировать свои сообщения
Вы не можете удалять свои сообщения
Вы не можете голосовать в опросах
Вы не можете прикреплять файлы к сообщениям
Вы можете скачивать файлы