Loading...
Error

Скачать Конвоиры / Chasers (Деннис Хоппер) [1994, Комедия, DVDRip-AVC] [AVO] (А.Михалев) + [DVO] (Екатеринбург Арт) торрент без регистрации

 
Статистика раздачи
Размер:  1,49 GB   |    Скачан:  146 раз
Сидов:  1  [  0 KB/s  ]  
 
Автор Сообщение

leon030982

[] 

Конвоиры / Chasers


Год выхода: 1994
Выпущено: США, Warner Bros. Pictures
Жанр: Комедия
Продолжительность: 01:41:20
Перевод 1: Авторский (одноголосый) (А.Михалев)
Перевод 2: Профессиональный (двухголосый закадровый)[Екатеринбург Арт]

Режиссер: Деннис Хоппер

В ролях: Том Беренджер, Эрика Элениак, Уильям МакНамара, Гэри Бьюзи, Деннис Хоппер

О фильме: В этой необычной для Хоппера ("Цвета", "Беспечный ездок") легкой комедии Том Беренджер ("Взвод") в несвойственной ему комедийной роли военного моряка должен конвоировать вместе с мелким жуликом, подрабатывающим хищениями на военно-морском складе (МакНамара), заключенного, который оказывается прекрасной сексапильной девушкой (Элениак). В тюрьму ей попасть никак нельзя по многим причинам, и она постоянно пытается сбежать. Масса смешных приключений и переделок с "хэппи-эндом".



Качество: DVDRip-AVC
Формат: MKV
Видео кодек: h.264
Аудио кодек: AC-3
Видео: AVC, 1024x584 (16:9), 23.976 fps, 1 527 Kbps (0.106 bit/pixel)
Аудио 1: AC-3, 48.0 KHz, 6 ch, 384 Kbps, CBR [AVO]
Аудио 2:AC-3, 48.0 KHz, 2 ch, 192 Kbps, CBR [DVO]
E:INTERNETKonvoiry.1994.DVDRip-AVC.[AVO]+[DVO].mkv
General
Unique ID : 186142847055242648332624097281269047903 (0x8C09CEED41302855AAF08BF21804225F)
Complete name : E:INTERNETKonvoiry.1994.DVDRip-AVC.[AVO]+[DVO].mkv
Format : Matroska
Format version : Version 2
File size : 1.49 GiB
Duration : 1h 41mn
Overall bit rate : 2 110 Kbps
Encoded date : UTC 2013-08-28 11:01:14
Writing application : mkvmerge v4.2.0
Writing library : libebml v1.0.0 + libmatroska v1.0.0
Video #1
ID : 1
Format : AVC
Format/Info : Advanced Video Codec
Format profile : High@L3.2
Format settings, CABAC : Yes
Format settings, ReFrames : 8 frames
Muxing mode : Header stripping
Codec ID : V_MPEG4/ISO/AVC
Duration : 1h 41mn
Bit rate : 1 527 Kbps
Width : 1 024 pixels
Height : 584 pixels
Display aspect ratio : 16:9
Frame rate mode : Constant
Frame rate : 23.976 fps
Color space : YUV
Chroma subsampling : 4:2:0
Bit depth : 8 bits
Scan type : Progressive
Bits/(Pixel*Frame) : 0.106
Stream size : 1.06 GiB (71%)
Writing library : x264 core 114 r1924 08d04a4
Encoding settings : cabac=1 / ref=8 / deblock=1:-1:-1 / analyse=0x3:0x133 / me=umh / subme=7 / psy=1 / psy_rd=1.00:0.10 / mixed_ref=1 / me_range=16 / chroma_me=1 / trellis=2 / 8x8dct=1 / cqm=0 / deadzone=21,11 / fast_pskip=0 / chroma_qp_offset=-3 / threads=3 / sliced_threads=0 / nr=0 / decimate=1 / interlaced=0 / constrained_intra=0 / bframes=3 / b_pyramid=2 / b_adapt=2 / b_bias=0 / direct=1 / weightb=1 / open_gop=0 / weightp=2 / keyint=250 / keyint_min=23 / scenecut=40 / intra_refresh=0 / rc_lookahead=50 / rc=abr / mbtree=1 / bitrate=1527 / ratetol=1.0 / qcomp=0.60 / qpmin=0 / qpmax=69 / qpstep=4 / ip_ratio=1.40 / aq=1:1.00
Default : Yes
Forced : No
Audio #2
ID : 2
Format : AC-3
Format/Info : Audio Coding 3
Mode extension : CM (complete main)
Format settings, Endianness : Big
Muxing mode : Header stripping
Codec ID : A_AC3
Duration : 1h 41mn
Bit rate mode : Constant
Bit rate : 384 Kbps
Channel(s) : 6 channels
Channel positions : Front: L C R, Side: L R, LFE
Sampling rate : 48.0 KHz
Bit depth : 16 bits
Compression mode : Lossy
Stream size : 278 MiB (18%)
Title : AVO [Mihalev]
Language : Russian
Default : Yes
Forced : No
Audio #3
ID : 3
Format : AC-3
Format/Info : Audio Coding 3
Mode extension : CM (complete main)
Format settings, Endianness : Big
Muxing mode : Header stripping
Codec ID : A_AC3
Duration : 1h 41mn
Bit rate mode : Constant
Bit rate : 192 Kbps
Channel(s) : 2 channels
Channel positions : Front: L R
Sampling rate : 48.0 KHz
Bit depth : 16 bits
Compression mode : Lossy
Stream size : 139 MiB (9%)
Title : DVO [EA]
Language : Russian
Default : No
Forced : No





Скачать Конвоиры.Chasers.(Деннис.Хоппер).[1994.Комедия.DVDRip-AVC].[AVO].(А.Михалев).+.[DVO].(Екатеринбург.Арт).torrent без регистрации
Золото ЗОЛОТАЯ РАЗДАЧА! СКАЧАННОЕ НЕ ЗАСЧИТЫВАЕТСЯ! Золото
Дата: Зарегистрирован   [ Тип: внутренний ] Как тут cкачать?
MAGNET ссылка
MAGNET ссылка


Скачать .torrent

15 KB

Статус: проверено DHT
Скачан: торрент - 146 раз, раздача полностью - 59 раз
Размер: 1,49 GB
Оценка:  5 (Голосов: 2)
Поблагодарили: 3
Поделиться ссылкой на эту раздачу с друзьями:
В контактеFacebookОдноклассникиTwitterLivejournalМой МирLiveinternet
 

 
Показать сообщения:    


Вы не можете начинать темы
Вы не можете отвечать на сообщения
Вы не можете редактировать свои сообщения
Вы не можете удалять свои сообщения
Вы не можете голосовать в опросах
Вы не можете прикреплять файлы к сообщениям
Вы можете скачивать файлы