Loading...
Error

Скачать Улика / Felony (Дэвид А. Прайор / David A. Prior) [1995, боевик, DVDRip] [AVO] (Сергей Кузнецов) торрент без регистрации

 
Статистика раздачи
Размер:  1,43 GB   |    Скачан:  114 раз
Сидов:  1  [  0 KB/s  ]  
 
Автор Сообщение

leon030982

[] 

Улика / Felony


Год выпуска: 1995
Страна: США
Жанр: Боевик
Продолжительность: 01:33:08
Перевод: Авторский (одноголосый закадровый)[Сергей Кузнецов]
Cубтитры: нет

Режиссер: Дэвид А. Прайор /David A. Prior

В ролях: Джеффри Комбс, Эшли Лоуренс, Лео Росси, Чарльз Нэпьер, Дэвид Уорнер, Джо Дон Бейкер, Лэнс Хенриксен, Патрик Дж. Галлахер, Коринна Эверсон, Ред Уэст

Описание: Ночная операция, проводимая полицейскими по ликвидации крупной партии наркотиков, оказалась для двух телерепортеров, снимающих захват на пленку для утренних новостей, катастрофической. Бандиты, заранее получив информацию о готовящемся штурме, устроили засаду.
Ведя шквальный огонь из автоматического оружия, они за несколько минут превратили группу захвата в кровавое месиво. Во время перестрелки репортерам удалось скрыться вместе с видеокассетой. Мафии необходимо уничтожить кассету как улику, а заодно и свидетелей. Полиции же кассета нужна, чтобы найти и покарать убийц. «Прожженные» репортеры решили по-своему: за кассету и с тех, и с других получить крупную сумму денег…



Качество видео: DVDRip
Формат видео: AVI
Видео кодек: XviD
Аудио кодек: AC3
Видео: XviD build 50, 720x380 (1.89:1), 23.976 fps, 1996 kbps avg, 0.30 bit/pixel
Аудио: AC3 Dolby Digital, 48000Hz, 2/0 (L,R), 192.00 kbps avg
Дорожка с С. Кузнецовым cинхронизирована, ремастирована и наложена ale_x2008 при помощи Adobe Audition, Sony Vegas и VirtualDubMod.
За оцифрованную с VHS дорожку благодарим - Fikaloid
Общее
Полное имя : C:\Users\к\Desktop\фильмы\Felony (Улика) Kuznecov.avi
Формат : AVI
Формат/Информация : Audio Video Interleave
Размер файла : 1,43 Гбайт
Продолжительность : 1 ч. 33 м.
Общий поток : 2198 Кбит/сек
Программа кодирования : VirtualDubMod 1.5.10.3 (build 2550/release)
Библиотека кодирования : VirtualDubMod build 2550/release
Видео
Идентификатор : 0
Формат : xvid
Идентификатор кодека : xvid
Продолжительность : 1 ч. 33 м.
Битрейт : 1997 Кбит/сек
Ширина : 720 пикселей
Высота : 380 пикселей
Соотношение сторон : 1,895
Частота кадров : 23,976 кадра/сек
Бит/(Пиксели*Кадры) : 0.304
Размер потока : 1,30 Гбайт (91%)
Аудио
Идентификатор : 1
Формат : AC-3
Формат/Информация : Audio Coding 3
Расширение режима : CM (complete main)
Параметр Endianness формата : Big
Идентификатор кодека : 2000
Продолжительность : 1 ч. 33 м.
Вид битрейта : Постоянный
Битрейт : 192 Кбит/сек
Каналы : 2 канала
Расположение каналов : Front: L R
Частота : 48,0 КГц
Битовая глубина : 16 бит
Метод сжатия : С потерями
Размер потока : 128 Мбайт (9%)
Выравнивание : Разделение по промежуткам
Продолжительность промежутка : 42 мс. (1,00 видеокадр)
Время предзагрузки промежутка : 500 мс.




Скачать Улика.Felony.(Дэвид.А.Прайор.David.A.Prior).[1995.боевик.DVDRip].[AVO].(Сергей.Кузнецов).torrent без регистрации
Золото ЗОЛОТАЯ РАЗДАЧА! СКАЧАННОЕ НЕ ЗАСЧИТЫВАЕТСЯ! Золото
Дата: Зарегистрирован   [ Тип: внутренний ] Как тут cкачать?
MAGNET ссылка
MAGNET ссылка


Скачать .torrent

15 KB

Статус: проверено DHT
Скачан: торрент - 114 раз, раздача полностью - 54 раз
Размер: 1,43 GB
Оценка:  - (Голосов: 0)
Поблагодарили: 2
Поделиться ссылкой на эту раздачу с друзьями:
В контактеFacebookОдноклассникиTwitterLivejournalМой МирLiveinternet
 

 
Показать сообщения:    


Вы не можете начинать темы
Вы не можете отвечать на сообщения
Вы не можете редактировать свои сообщения
Вы не можете удалять свои сообщения
Вы не можете голосовать в опросах
Вы не можете прикреплять файлы к сообщениям
Вы можете скачивать файлы