Loading...
Error

Скачать Смертельная ставка / Deadly Bet (Ричард У.Манчкин / Richard W. Munchkin) [1992 г., боевик, боевые искусства, DVDRip] [MVO] (Hallmark) + [AVO] (Дольский) торрент без регистрации

 
Статистика раздачи
Размер:  1,45 GB   |    Скачан:  170 раз
Сидов:  1  [  0 KB/s  ]  
 
Автор Сообщение

leon030982

[] 

Смертельная ставка / Deadly Bet

Год выпуска: 1992
Страна: США
Производство: PM Entertainment Group Inc.
Жанр: боевик, боевые искусства
Продолжительность: 01:27:55
Перевод 1: Профессиональный (многоголосый, закадровый)[Hallmark]
Перевод 2: Авторский (одноголосый, закадровый)[Дольский]

Режиссер: Ричард У.Манчкин / Richard W. Munchkin

В ролях: Гэри Дэниелс, Джефф Уинкотт, Стивен Винсент Ли, Шарлин Тилтон, Майкл Делано, Майк Тони, Джерри Тиффе, Рэй Манчини, Шерри Роуз, Пэтти Той, Карл Бутто, Коул С. МакКэй, Арт Камачо, Тони Уильямс, Карло П. Бутто, Винсенте Сеговия, Роберт Бонора, Томас Санфилиппо, Уильям Оуэн, Джон Агро, Роман Нери, Джералд Окамура, Лео Ли

Описание: Анжело (Джефф Уинкотт) с подругой Изабеллой (Шарлин Тилтон) приезжает в Лас-Вегас и решает принять участие в подпольном турнире по кикбоксингу, однако одолеть местного чемпиона Рико (Стивен Винсент Ли) оказывается ему не по зубам. В результате Анжело проигрывает все свои деньги, теряет девушку и оказывается по уши в долгах. Но у него всё ещё есть шанс реабилитироваться: на носу новый нелегальный чемпионат с призовым фондом в миллион долларов, правда в числе его участников будет всё тот же Рико.



Автор релиза:
Качество видео: DVDRip [DVD9]
Формат файла: AVI
Видео кодек:
Аудио кодек:
Видео: 720x544, 25.000 fps, MPEG-4 Visual, 2095 kbps
Аудио 1: 48 kHz, MP3, 2 ch, 128 kbps [Hallmark]
Аудио 2: 48 kHz, MP3, 2 ch, 128 kbps [Дольский]
General
Format : AVI
Format/Info : Audio Video Interleave
File size : 1.45 GiB
Duration : 1h 27mn
Overall bit rate : 2 366 Kbps
Writing application : VirtualDubMod 1.5.10.3 (build 2550/release)
Writing library : VirtualDubMod build 2550/release
Video
ID : 0
Format : MPEG-4 Visual
Format profile : Advanced Simple@L5
Format settings, BVOP : 2
Format settings, QPel : No
Format settings, GMC : No warppoints
Format settings, Matrix : Default (MPEG)
Codec ID : XVID
Codec ID/Hint : XviD
Duration : 1h 27mn
Bit rate : 2 095 Kbps
Width : 720 pixels
Height : 544 pixels
Display aspect ratio : 4:3
Frame rate : 25.000 fps
Color space : YUV
Chroma subsampling : 4:2:0
Bit depth : 8 bits
Scan type : Progressive
Compression mode : Lossy
Bits/(Pixel*Frame) : 0.214
Stream size : 1.29 GiB (89%)
Writing library : XviD 1.2.1 (UTC 2008-12-04)
Audio #1
ID : 1
Format : MPEG Audio
Format version : Version 1
Format profile : Layer 3
Mode : Joint stereo
Codec ID : 55
Codec ID/Hint : MP3
Duration : 1h 27mn
Bit rate mode : Constant
Bit rate : 128 Kbps
Channel(s) : 2 channels
Sampling rate : 48.0 KHz
Compression mode : Lossy
Stream size : 80.5 MiB (5%)
Alignment : Aligned on interleaves
Interleave, duration : 40 ms (1.00 video frame)
Interleave, preload duration : 504 ms
Audio #2
ID : 2
Format : MPEG Audio
Format version : Version 1
Format profile : Layer 3
Mode : Joint stereo
Codec ID : 55
Codec ID/Hint : MP3
Duration : 1h 27mn
Bit rate mode : Constant
Bit rate : 128 Kbps
Channel(s) : 2 channels
Sampling rate : 48.0 KHz
Compression mode : Lossy
Stream size : 80.5 MiB (5%)
Alignment : Aligned on interleaves
Interleave, duration : 40 ms (1.00 video frame)
Interleave, preload duration : 504 ms



Скачать Смертельная.ставка.Deadly.Bet.(Ричард.У.Манчкин.Richard.W.Munchkin).[1992.г.боевик.боевые.искусства.DVDRip].[MVO].(Hallmark).+.[AVO].(Дольский).torrent без регистрации
Золото ЗОЛОТАЯ РАЗДАЧА! СКАЧАННОЕ НЕ ЗАСЧИТЫВАЕТСЯ! Золото
Дата: Зарегистрирован   [ Тип: внутренний ] Как тут cкачать?
MAGNET ссылка
MAGNET ссылка


Скачать .torrent

15 KB

Статус: проверено DHT
Скачан: торрент - 170 раз, раздача полностью - 18 раз
Размер: 1,45 GB
Оценка:  5 (Голосов: 2)
Поблагодарили: 1
Поделиться ссылкой на эту раздачу с друзьями:
В контактеFacebookОдноклассникиTwitterLivejournalМой МирLiveinternet
 

 
Показать сообщения:    


Вы не можете начинать темы
Вы не можете отвечать на сообщения
Вы не можете редактировать свои сообщения
Вы не можете удалять свои сообщения
Вы не можете голосовать в опросах
Вы не можете прикреплять файлы к сообщениям
Вы можете скачивать файлы