Loading...
Error

Скачать Форс-мажоры / Suits (Сезон 03, серия 01-09 из 16) (Kevin Bray, John Scott / Кевин Брэй, Джон Скотт) [2013, драма, WEBRip] [MVO] (To4ka) торрент без регистрации

 
Статистика раздачи
Размер:  208 MB   |    Скачан:  190 раз

Полного источника не было: 2 года 11 месяцев

 
Автор Сообщение

leon030982

[] 



Форс-мажоры / Костюмы в законе / Suits




Год выпуска: 2013
Страна: США | USA Network
Жанр: Драма
Продолжительность:9x ~ 00:03:00
Перевод: Любительский (многоголосый, закадровый) [To4ka]
Субтитры: нет

Режиссёры: Кевин Брэй, Джон Скотт, Майкл Смит
В ролях: Гэбриел Махт, Патрик Дж. Адамс, Рик Хоффман, Меган Маркл, Сара Рафферти, Джина Торрес, Ванесса Рэй, Том Липински, Макс Топплин, Ребекка Скул, Джулиан ДеЗотти, Бен Льюис и др.
Описание: Веб-эпизоды выходящие вместе с 3 сезоном сериала
Качество: WEBRip
Формат: AVI
Видео кодек: XviD
Аудио кодек: MP3
Видео: 720x400 (16:9), 25.000 fps, ~1200 kbps, ~0.190 bit/pixel
Аудио Rus: 48 kHz, 2 ch, ~128 kbps To4ka
Аудио Eng: 48 kHz, 2 ch, ~128 kbps |Original|

Релиз: по заказу seopult
Озвучка: Александр Нелюбин, Андрей Хомяков, Ирина Грачева и Марина Комчарукова
Перевод: Релиз-группа "To4kaTranslate"
ImDB / Кинопоиск
E:\INTERNET\Suits.WE.s03e01-09.WebRip.Rus.Eng.[To4ka.TV]\Suits.WE.As.If.WebRip.Rus.Eng.avi
General
Complete name : E:\INTERNET\Suits.WE.s03e01-09.WebRip.Rus.Eng.[To4ka.TV]\Suits.WE.As.If.WebRip.Rus.Eng.avi
Format : AVI
Format/Info : Audio Video Interleave
File size : 29.1 MiB
Duration : 2mn 48s
Overall bit rate : 1 446 Kbps
Writing application : VirtualDubModRus 1.5.10.2 (build 2542/release)
Writing library : VirtualDubMod build 2542/release
Video #0
ID : 0
Format : xvid
Codec ID : xvid
Duration : 2mn 48s
Bit rate : 1 172 Kbps
Width : 720 pixels
Height : 400 pixels
Display aspect ratio : 16:9
Frame rate : 25.000 fps
Bits/(Pixel*Frame) : 0.163
Stream size : 23.6 MiB (81%)
Audio #1
ID : 1
Format : MPEG Audio
Format version : Version 1
Format profile : Layer 3
Mode : Joint stereo
Mode extension : MS Stereo
Codec ID : 55
Codec ID/Hint : MP3
Duration : 2mn 48s
Bit rate mode : Constant
Bit rate : 128 Kbps
Channel(s) : 2 channels
Sampling rate : 48.0 KHz
Compression mode : Lossy
Stream size : 2.57 MiB (9%)
Alignment : Aligned on interleaves
Interleave, duration : 40 ms (1.00 video frame)
Interleave, preload duration : 504 ms
Audio #2
ID : 2
Format : MPEG Audio
Format version : Version 1
Format profile : Layer 3
Mode : Joint stereo
Mode extension : MS Stereo
Codec ID : 55
Codec ID/Hint : MP3
Duration : 2mn 48s
Bit rate mode : Constant
Bit rate : 128 Kbps
Channel(s) : 2 channels
Sampling rate : 48.0 KHz
Compression mode : Lossy
Stream size : 2.57 MiB (9%)
Alignment : Aligned on interleaves
Interleave, duration : 24 ms (0.60 video frame)
Interleave, preload duration : 504 ms
Writing library : LAME3.98.4ЄЄЄЄЄЄЄЄЄЄ
Внимание! Раздача ведётся путём добавления новых серий; при каждом добавлении создётся новый торрент. Чтобы начать докачку новой серии, пользователям необходимо сделать следующее:Остановить скачивание.
Удалить старый торрент у себя из клиента (старые серии удалять не надо).
Скачать новый торрент и запустить его у себя в клиенте вместо старого, при этом указать клиенту путь в старую папку куда и должно происходить скачивание новых серий.Ваш клиент при этом должен произвести хеширование (проверку) старой папки (если не производит сам - помогите ему сделать это), и будет докачивать только те серии которых у вас ещё нет. Старые серии при этом не удаляются, а продолжают раздаваться!
Eсли вы уже удалили старые серии, то предотвратить повторную закачку старых серий можно, отжав галочку в соответсвующих местах при запуске нового торрента. По возможности, желательно не удалять старые серии как можно дольше чтобы релизёр не столько продолжал раздавать старые серии, а смог сконцентрироваться на новых.



Скачать Форс-мажоры.Suits.(Сезон.03.серия.01-09.из.16).(Kevin.Bray.John.Scott.Кевин.Брэй.Джон.Скотт).[2013.драма.WEBRip].[MVO].(To4ka).torrent без регистрации
Золото ЗОЛОТАЯ РАЗДАЧА! СКАЧАННОЕ НЕ ЗАСЧИТЫВАЕТСЯ! Золото
Дата: Зарегистрирован   [ Тип: внутренний ] Как тут cкачать?
MAGNET ссылка
MAGNET ссылка


Скачать .torrent

18 KB

Статус: проверено
Скачан: торрент - 190 раз, раздача полностью - 0 раз
Размер: 208 MB
Оценка:  5 (Голосов: 1)
Поблагодарили: 1
Поделиться ссылкой на эту раздачу с друзьями:
В контактеFacebookОдноклассникиTwitterLivejournalМой МирLiveinternet
 

 
Показать сообщения:    


Вы не можете начинать темы
Вы не можете отвечать на сообщения
Вы не можете редактировать свои сообщения
Вы не можете удалять свои сообщения
Вы не можете голосовать в опросах
Вы не можете прикреплять файлы к сообщениям
Вы можете скачивать файлы