Loading...
Error

Скачать Торговец смертью / Merchant of Death (Йосси Вейн /Yossi Wein) [1997, Боевик, DVDRip] [AVO] (Андрей Гаврилов) торрент без регистрации

 
Статистика раздачи
Размер:  1,46 GB   |    Скачан:  122 раза
Сидов:  1  [  0 KB/s  ]  
 
Автор Сообщение

leon030982

[] 

Торговец смертью / Merchant of Death


Год выпуска: 1997
Страна: Канада, США
Жанр: Боевик
Продолжительность: 01:32:11
Перевод: Авторский (одноголосый закадровый)[Андрей Гаврилов]
Cубтитры: нет
Режиссер: Йосси Вейн /Yossi Wein

В ролях: Майкл Паре, Линда Хоффман, Джон Саймон Джонс, Justin Illusion, Энтони Фриджон, Тони Капрари, Майкл МакГоверн, Грег Мелвилл-Смит, Дион Стюардсон, Фрэнк Нотаро

Описание: В детстве Джим Рендалл стал свидетелем расправы над своими родителями и младшей сестрой. Убийцы так и не были найдены… Много лет спустя Джим становится полицейским и случайно нападает на след наркодиллеров, имеющих серьёзные связи в полиции. Чем больше улик находит Рэндалл, тем больше он убеждается в том, что люди за которыми он охотится не кто иные, как убийцы его родных…



Качество видео: DVDRip
Формат видео: AVI
Видео кодек: XviD
Аудио кодек: AC3
Видео: 704x528 (1.33:1), 25 fps, XviD build 58 ~2070 kbps avg, 0.22 bit/pixel
Аудио: 48 kHz, AC3 Dolby Digital, 2/0 (L,R) ch, ~192 kbps
Дорожка с А. Гавриловым синхронизирована, ремастирована и наложена (ale_x2008) при помощи Adobe Audition, Sony Vegas и VirtualDubMod.
За оцифрованную с VHS дорожку благодарим - ochkarik1
Общее
Полное имя : C:\Users\к\Desktop\фильмы\Merchant of Death (Торговец смертью) Gavrilov.avi
Формат : AVI
Формат/Информация : Audio Video Interleave
Размер файла : 1,46 Гбайт
Продолжительность : 1 ч. 32 м.
Общий поток : 2273 Кбит/сек
Программа кодирования : VirtualDubMod 1.5.10.3 (build 2550/release)
Библиотека кодирования : VirtualDubMod build 2550/release
Видео
Идентификатор : 0
Формат : MPEG-4 Visual
Профиль формата : Advanced Simple@L5
Параметр BVOP формата : 1
Параметр QPel формата : Нет
Параметр GMC формата : Без точки перехода
Параметр матрицы формата : Default (MPEG)
Идентификатор кодека : XVID
Идентификатор кодека/Подсказка : XviD
Продолжительность : 1 ч. 32 м.
Битрейт : 2071 Кбит/сек
Ширина : 704 пикселя
Высота : 528 пикселей
Соотношение сторон : 4:3
Частота кадров : 25,000 кадров/сек
Цветовое пространство : YUV
Субдискретизация насыщенности : 4:2:0
Битовая глубина : 8 бит
Тип развёртки : Прогрессивная
Метод сжатия : С потерями
Бит/(Пиксели*Кадры) : 0.223
Размер потока : 1,33 Гбайт (91%)
Библиотека кодирования : XviD 58
Аудио
Идентификатор : 1
Формат : AC-3
Формат/Информация : Audio Coding 3
Расширение режима : CM (complete main)
Параметр Endianness формата : Big
Идентификатор кодека : 2000
Продолжительность : 1 ч. 32 м.
Вид битрейта : Постоянный
Битрейт : 192 Кбит/сек
Каналы : 2 канала
Расположение каналов : Front: L R
Частота : 48,0 КГц
Битовая глубина : 16 бит
Метод сжатия : С потерями
Размер потока : 127 Мбайт (8%)
Выравнивание : Разделение по промежуткам
Продолжительность промежутка : 40 мс. (1,00 видеокадр)
Время предзагрузки промежутка : 500 мс.



Скачать Торговец.смертью.Merchant.of.Death.(Йосси.Вейн.Yossi.Wein).[1997.Боевик.DVDRip].[AVO].(Андрей.Гаврилов).torrent без регистрации
Золото ЗОЛОТАЯ РАЗДАЧА! СКАЧАННОЕ НЕ ЗАСЧИТЫВАЕТСЯ! Золото
Дата: Зарегистрирован   [ Тип: внутренний ] Как тут cкачать?
MAGNET ссылка
MAGNET ссылка


Скачать .torrent

15 KB

Статус: проверено DHT
Скачан: торрент - 122 раз, раздача полностью - 48 раз
Размер: 1,46 GB
Оценка:  - (Голосов: 0)
Поблагодарили: 0
Поделиться ссылкой на эту раздачу с друзьями:
В контактеFacebookОдноклассникиTwitterLivejournalМой МирLiveinternet
 

 
Показать сообщения:    


Вы не можете начинать темы
Вы не можете отвечать на сообщения
Вы не можете редактировать свои сообщения
Вы не можете удалять свои сообщения
Вы не можете голосовать в опросах
Вы не можете прикреплять файлы к сообщениям
Вы можете скачивать файлы